Сегодня идет свободное скачивание без начисления Download

Результатов поиска: 461

Автор Сообщение

Theseus

Пост 15-Фев-2019 13:35

[Цитировать]

Крид 2 / Creed II- Год выхода: 2018
Страна: США
Жанр: драма, спорт
Продолжительность: 02:10:41
Перевод: Профессиональный (полное дублирование) [Чистый звук]
Субтитры: Отсутствуют-Режиссер: Стивен Кейпл мл.-В ролях: Майкл Б. Джордан, Сильвестр Сталлоне, Тесса Томпсон, Филисия Рашад, Дольф Лундгрен, Флориан Мунтяну, Расселл Хорнсби, Вуд Харрис, Майло Вентимилья-О фильме: Жизнь Адониса Крида превратилась в череду компромиссов. Пока он разрывается между долгом и тренировками к следующему большому бою, судьба готовит ему новую невыполнимую миссию. Будущий противник тесно связан с историей его семьи, что лишь повышает ставки перед предстоящим выходом на ринг. Рокки Бальбоа всегда будет на стороне Крида, и вместе они выйдут на битву с призраками их общего прошлого, выяснят, за что действительно стоит сражаться, и поймут, что нет ничего дороже семьи. Нужно вернуться к истокам, чтобы вспомнить, что именно сделало тебя чемпионом, и что, куда бы ты не бежал, от себя все равно не скрыться- -Качество: WEB-DLRip 1080p
Формат: MKV
Видео кодек: x.264
Аудио кодек: AC3
Видео: AVC, 1920x800 (2.40:1), 23.976 fps, 6 052 kb/s
Аудио: AC-3, 48.0 kHz, 2 ch, 384 kb/s-Присутствует реклама-

Трейлер

-     - -

Theseus

Пост 15-Фев-2019 13:31

[Цитировать]

Крид 2 / Creed II- Год выхода: 2018
Страна: США
Жанр: драма, спорт
Продолжительность: 02:10:41
Перевод: Профессиональный (полное дублирование) [Чистый звук]
Субтитры: Отсутствуют-Режиссер: Стивен Кейпл мл.-В ролях: Майкл Б. Джордан, Сильвестр Сталлоне, Тесса Томпсон, Филисия Рашад, Дольф Лундгрен, Флориан Мунтяну, Расселл Хорнсби, Вуд Харрис, Майло Вентимилья-О фильме: Жизнь Адониса Крида превратилась в череду компромиссов. Пока он разрывается между долгом и тренировками к следующему большому бою, судьба готовит ему новую невыполнимую миссию. Будущий противник тесно связан с историей его семьи, что лишь повышает ставки перед предстоящим выходом на ринг. Рокки Бальбоа всегда будет на стороне Крида, и вместе они выйдут на битву с призраками их общего прошлого, выяснят, за что действительно стоит сражаться, и поймут, что нет ничего дороже семьи. Нужно вернуться к истокам, чтобы вспомнить, что именно сделало тебя чемпионом, и что, куда бы ты не бежал, от себя все равно не скрыться- -Качество: WEB-DLRip 720p
Формат: MKV
Видео кодек: x.264
Аудио кодек: AC3
Видео: AVC, 1280x532 (2.40:1), 23.976 fps, 5381 kb/s
Аудио: AC-3, 48.0 kHz, 2 ch, 384 kb/s-Присутствует реклама-

Трейлер

-   - -

Theseus

Пост 12-Фев-2019 18:20

[Цитировать]

Оверлорд / Overlord- Год выхода: 2018
Страна: США, Канада
Жанр: ужасы, фантастика, боевик, детектив, приключения, военный
Продолжительность: 01:49:47
Перевод: Профессиональный (полное дублирование) [Лицензия]
Субтитры: русские, английские, малайские, китайские, чешские, датские, немецкие, греческие, испанские, французские, хинди, итальянские, японские, корейские, венгерские, нидерландские, норвежские, польские, португальские, румынские, словацкие, финские, шведские, тайские, турецкие, японские-Режиссер: Джулиус Эйвери-В ролях: Джован Адепо, Уайатт Рассел, Матильда Олливье, Йохан Филип Асбек, Джон Магаро, Йен де Кестекер, Джейкоб Андерсон, Доминик Эпплуайт, Джанни Тофер, Джозеф Куинн-О фильме: Накануне высадки союзников в Нормандии два американских десантника проникают в оккупированный немцами посёлок, чтобы разрушить их радиомачту. Лазутчикам предстоит столкнуться не только с фашистскими военными, но и с паранормальными последствиями нацистских экспериментов.- -Качество: UHD Blu-ray Disc 2160p
Контейнер: BDMV
Видео кодек: H.265
Аудио кодек: AC3, Dolby TrueHD
Видео: 3840x2160 at 23.976 fps, MPEG-H HEVC HDR Video, 46.6 Mb/s
Аудио #1: Dolby TrueHD/Atmos Audio English 7.1-Atmos / 48 kHz / 5363 kbps / 24-bit (AC3 Core: 5.1-EX / 48 kHz / 640 kbps)
Аудио #2: Dolby Digital Audio English 5.1 / 48 kHz / 640 kbps
Аудио #3: Dolby TrueHD/Atmos Audio German 7.1-Atmos / 48 kHz / 5572 kbps / 24-bit (AC3 Core: 5.1-EX / 48 kHz / 640 kbps)
Аудио #4: Dolby Digital Audio Spanish 5.1 / 48 kHz / 640 kbps
Аудио #5: Dolby Digital Audio Spanish 5.1 / 48 kHz / 640 kbps
Аудио #6: Dolby Digital Audio French 5.1 / 48 kHz / 640 kbps
Аудио #7: Dolby Digital Audio Italian 5.1 / 48 kHz / 640 kbps
Аудио #8: Dolby Digital Audio Japanese 5.1 / 48 kHz / 640 kbps
Аудио #9: Dolby Digital Audio Polish 5.1 / 48 kHz / 640 kbps
Аудио #10: Dolby Digital Audio Portuguese 5.1 / 48 kHz / 640 kbps
Аудио #11: Dolby Digital Audio Russian 5.1 / 48 kHz / 640 kbps-

BDInfo

Код:
DISC INFO:
Disc Title: OVERLORD
Disc Size: 63,865,965,698 bytes
Protection: AACS2
Extras: Ultra HD, BD-Java
BDInfo: 0.7.5.3 (compatible layout created by DVDFab 11.0.1.5)
PLAYLIST REPORT:
Name: 00800.MPLS
Length: 1:49:44.452 (h:m:s.ms)
Size: 61,507,110,912 bytes
Total Bitrate: 74.73 Mbps
(*) Indicates included stream hidden by this playlist.
VIDEO:
Codec Bitrate Deion
----- ------- -----------
MPEG-H HEVC Video 46592 kbps 2160p / 23.976 fps / 16:9 / Main 10 @ Level 5.1 @ High / 4:2:0 / 10 bits / HDR10 / BT.2020 /
* MPEG-H HEVC Video 5216 kbps 1080p / 23.976 fps / 16:9 / Main 10 @ Level 5.1 @ High / 4:2:0 / 10 bits / Dolby Vision / BT.2020 /
AUDIO:
Codec Language Bitrate Deion
----- -------- ------- -----------
Dolby TrueHD/Atmos Audio English 5363 kbps 7.1-Atmos / 48 kHz / 5363 kbps / 24-bit (AC3 Core: 5.1-EX / 48 kHz / 640 kbps)
Dolby Digital Audio English 640 kbps 5.1 / 48 kHz / 640 kbps
Dolby TrueHD/Atmos Audio German 5572 kbps 7.1-Atmos / 48 kHz / 5572 kbps / 24-bit (AC3 Core: 5.1-EX / 48 kHz / 640 kbps)
Dolby Digital Audio Spanish 640 kbps 5.1 / 48 kHz / 640 kbps
Dolby Digital Audio Spanish 640 kbps 5.1 / 48 kHz / 640 kbps
Dolby Digital Audio French 640 kbps 5.1 / 48 kHz / 640 kbps
Dolby Digital Audio Italian 640 kbps 5.1 / 48 kHz / 640 kbps
Dolby Digital Audio Japanese 640 kbps 5.1 / 48 kHz / 640 kbps
Dolby Digital Audio Polish 640 kbps 5.1 / 48 kHz / 640 kbps
Dolby Digital Audio Portuguese 640 kbps 5.1 / 48 kHz / 640 kbps
Dolby Digital Audio Russian 640 kbps 5.1 / 48 kHz / 640 kbps
SUBTITLES:
Codec Language Bitrate Deion
----- -------- ------- -----------
Presentation Graphics English 8.031 kbps
Presentation Graphics English 11.916 kbps
Presentation Graphics Arabic 6.412 kbps
Presentation Graphics Malay 8.43 kbps
Presentation Graphics Chinese 11.751 kbps
Presentation Graphics Czech 12.518 kbps
Presentation Graphics Danish 6.947 kbps
Presentation Graphics German 7.91 kbps
Presentation Graphics Greek 13.673 kbps
Presentation Graphics Spanish 7.623 kbps
Presentation Graphics Spanish 7.418 kbps
Presentation Graphics French 6.552 kbps
Presentation Graphics Hindi 16.117 kbps
Presentation Graphics Italian 7.255 kbps
Presentation Graphics Japanese 11.534 kbps
Presentation Graphics Korean 9.183 kbps
Presentation Graphics Hungarian 12.724 kbps
Presentation Graphics Chinese 11.755 kbps
Presentation Graphics Dutch 6.421 kbps
Presentation Graphics Norwegian 6.841 kbps
Presentation Graphics Polish 10.961 kbps
Presentation Graphics Portuguese 6.126 kbps
Presentation Graphics Portuguese 7.498 kbps
Presentation Graphics Russian 12.12 kbps
Presentation Graphics Romanian 11.31 kbps
Presentation Graphics Slovak 12.397 kbps
Presentation Graphics Finnish 7.083 kbps
Presentation Graphics Swedish 6.933 kbps
Presentation Graphics Thai 8.886 kbps
Presentation Graphics Turkish 13.486 kbps
Presentation Graphics Japanese 0.847 kbps

Трейлер

-     - -

Theseus

Пост 12-Фев-2019 18:18

[Цитировать]

Оверлорд / Overlord- Год выхода: 2018
Страна: США, Канада
Жанр: ужасы, фантастика, боевик, детектив, приключения, военный
Продолжительность: 01:49:47
Перевод: Профессиональный (полное дублирование) [Лицензия]
Субтитры: Русские (Forced, full), английские-Режиссер: Джулиус Эйвери-В ролях: Джован Адепо, Уайатт Рассел, Матильда Олливье, Йохан Филип Асбек, Джон Магаро, Йен де Кестекер, Джейкоб Андерсон, Доминик Эпплуайт, Джанни Тофер, Джозеф Куинн-О фильме: Накануне высадки союзников в Нормандии два американских десантника проникают в оккупированный немцами посёлок, чтобы разрушить их радиомачту. Лазутчикам предстоит столкнуться не только с фашистскими военными, но и с паранормальными последствиями нацистских экспериментов.- -Качество: BDRemux 2160p
Контейнер: MKV
Видео кодек: H.265
Аудио кодек: AC3, Dolby TrueHD
Видео: 3840x2160 at 23.976 fps, MPEG-H HEVC HDR Video, 46.6 Mb/s
Аудио #01: 48 kHz, AC3, 5.1, 640 Kbps | Дублированный | RUS
Аудио #02: 48 kHz, TrueHD, 7.1, 4723 Kbps | Оригинал | ENG
Аудио #03: 48 kHz, AC3, 5.1, 640 Kbps | Оригинал | ENG-

MediaInfo

Код:
General
Unique ID : 296952499449517398187634372214950281175 (0xDF66F8985FCC6A33F53A5B0A4F493FD7)
Complete name : Overlord.2018.BDREMUX.2160p.HDR.seleZen.mkv
Format : Matroska
Format version : Version 4
File size : 40.4 GiB
Duration : 1 h 49 min
Overall bit rate mode : Variable
Overall bit rate : 52.7 Mb/s
Movie name : Overlord 2018 from селезень
Encoded date : UTC 2019-02-12 06:56:28
Writing application : mkvmerge v29.0.0 ('Like It Or Not') 64-bit
Writing library : libebml v1.3.6 + libmatroska v1.4.9
Video
ID : 1
Format : HEVC
Format/Info : High Efficiency Video Coding
Commercial name : HDR10
Format profile : Main 10@L5.1@High
Codec ID : V_MPEGH/ISO/HEVC
Duration : 1 h 49 min
Bit rate : 46.6 Mb/s
Width : 3 840 pixels
Height : 2 160 pixels
Display aspect ratio : 16:9
Frame rate mode : Constant
Frame rate : 23.976 (24000/1001) FPS
Color space : YUV
Chroma subsampling : 4:2:0 (Type 2)
Bit depth : 10 bits
Bits/(Pixel*Frame) : 0.234
Stream size : 35.7 GiB (88%)
Default : Yes
Forced : No
Color range : Limited
Color primaries : BT.2020
Transfer characteristics : PQ
Matrix coefficients : BT.2020 non-constant
Mastering display color pri : Display P3
Mastering display luminance : min: 0.0001 cd/m2, max: 1000 cd/m2
Audio #1
ID : 2
Format : AC-3
Format/Info : Audio Coding 3
Commercial name : Dolby Digital
Codec ID : A_AC3
Duration : 1 h 49 min
Bit rate mode : Constant
Bit rate : 640 kb/s
Channel(s) : 6 channels
Channel layout : L R C LFE Ls Rs
Sampling rate : 48.0 kHz
Frame rate : 31.250 FPS (1536 SPF)
Bit depth : 16 bits
Compression mode : Lossy
Stream size : 502 MiB (1%)
Title : Dub [License]
Language : Russian
Service kind : Complete Main
Default : Yes
Forced : Yes
Audio #2
ID : 3
Format : MLP FBA 16-ch
Format/Info : Meridian Lossless Packing FBA with 16-channel presentation
Commercial name : Dolby TrueHD with Dolby Atmos
Codec ID : A_TRUEHD
Duration : 1 h 49 min
Bit rate mode : Variable
Bit rate : 4 723 kb/s
Maximum bit rate : 8 355 kb/s
Channel(s) : 8 channels
Channel layout : L R C LFE Ls Rs Lb Rb
Sampling rate : 48.0 kHz
Frame rate : 1 200.000 FPS (40 SPF)
Compression mode : Lossless
Delay relative to video : 32 ms
Stream size : 3.62 GiB (9%)
Title : Original
Language : English
Default : No
Forced : No
Number of dynamic objects : 11
Bed channel count : 1 channel
Bed channel configuration : LFE
Audio #3
ID : 4
Format : AC-3
Format/Info : Audio Coding 3
Commercial name : Dolby Digital
Codec ID : A_AC3
Duration : 1 h 49 min
Bit rate mode : Constant
Bit rate : 640 kb/s
Channel(s) : 6 channels
Channel layout : L R C LFE Ls Rs
Sampling rate : 48.0 kHz
Frame rate : 31.250 FPS (1536 SPF)
Bit depth : 16 bits
Compression mode : Lossy
Delay relative to video : 31 ms
Stream size : 502 MiB (1%)
Language : English
Service kind : Complete Main
Default : No
Forced : No
Text #1
ID : 5
Format : UTF-8
Codec ID : S_TEXT/UTF8
Codec ID/Info : UTF-8 Plain Text
Duration : 1 h 22 min
Bit rate : 5 b/s
Count of elements : 94
Stream size : 3.22 KiB (0%)
Title : Forced
Language : Russian
Default : Yes
Forced : Yes
Text #2
ID : 6
Format : UTF-8
Codec ID : S_TEXT/UTF8
Codec ID/Info : UTF-8 Plain Text
Duration : 1 h 42 min
Bit rate : 59 b/s
Count of elements : 1016
Stream size : 44.9 KiB (0%)
Title : Full
Language : Russian
Default : No
Forced : No
Text #3
ID : 7
Format : UTF-8
Codec ID : S_TEXT/UTF8
Codec ID/Info : UTF-8 Plain Text
Duration : 1 h 42 min
Bit rate : 49 b/s
Count of elements : 1447
Stream size : 37.3 KiB (0%)
Title : SDH
Language : English
Default : No
Forced : No
Menu
00:00:00.000 : :Глава 01
00:06:30.264 : :Глава 02
00:13:46.659 : :Глава 03
00:20:30.479 : :Глава 04
00:26:26.960 : :Глава 05
00:34:08.129 : :Глава 06
00:41:09.758 : :Глава 07
00:48:40.542 : :Глава 08
00:55:50.055 : :Глава 09
01:03:20.630 : :Глава 10
01:10:27.765 : :Глава 11
01:17:21.053 : :Глава 12
01:25:46.766 : :Глава 13
01:32:18.324 : :Глава 14
01:38:47.630 : :Глава 15
01:42:38.360 : :Глава 16

Трейлер

-     - -

Theseus

Пост 12-Фев-2019 18:17

[Цитировать]

Оверлорд / Overlord- Год выхода: 2018
Страна: США, Канада
Жанр: ужасы, фантастика, боевик, детектив, приключения, военный
Продолжительность: 01:49:47
Перевод: Профессиональный (полное дублирование) [Лицензия]
Субтитры: Русские (Forced, full), английские-Режиссер: Джулиус Эйвери-В ролях: Джован Адепо, Уайатт Рассел, Матильда Олливье, Йохан Филип Асбек, Джон Магаро, Йен де Кестекер, Джейкоб Андерсон, Доминик Эпплуайт, Джанни Тофер, Джозеф Куинн-О фильме: Накануне высадки союзников в Нормандии два американских десантника проникают в оккупированный немцами посёлок, чтобы разрушить их радиомачту. Лазутчикам предстоит столкнуться не только с фашистскими военными, но и с паранормальными последствиями нацистских экспериментов.- -Качество: BDRip 1080p
Формат: MKV
Видео кодек: x.264
Аудио кодек: AC3
Видео: AVC, 1920x800 (2,40:1), 23.976 fps, 20,4 Mбит/сек
Аудио #1: AC-3, 48,0 КГц, 6 ch, 640 Кбит/сек | RUS
Аудио #2: AC-3, 48,0 КГц, 6 ch, 640 Кбит/сек | ENG-

MediaInfo

Код:
General
Unique ID : 190622916086833405206579373489769592357 (0x8F68A3623DF73FD3892FB7C04096B625)
Complete name : Overlord.2018.BDRip.1080p.seleZen.mkv
Format : Matroska
Format version : Version 4
File size : 16.6 GiB
Duration : 1 h 49 min
Overall bit rate : 21.6 Mb/s
Movie name : Overlord 2018 from селезень
Encoded date : UTC 2019-02-12 06:33:57
Writing application : mkvmerge v29.0.0 ('Like It Or Not') 64-bit
Writing library : libebml v1.3.6 + libmatroska v1.4.9
Video
ID : 1
Format : AVC
Format/Info : Advanced Video Codec
Format profile : High@L4.1
Format settings : CABAC / 5 Ref Frames
Format settings, CABAC : Yes
Format settings, ReFrames : 5 frames
Codec ID : V_MPEG4/ISO/AVC
Duration : 1 h 49 min
Bit rate : 20.4 Mb/s
Width : 1 920 pixels
Height : 800 pixels
Display aspect ratio : 2.40:1
Frame rate mode : Constant
Frame rate : 23.976 (24000/1001) FPS
Color space : YUV
Chroma subsampling : 4:2:0
Bit depth : 8 bits
Scan type : Progressive
Bits/(Pixel*Frame) : 0.553
Stream size : 15.6 GiB (94%)
Title : MTeam
Writing library : x264 core 157 r2938 2b00a84 TnP@MTeam Mod
Encoding settings : cabac=1 / ref=5 / deblock=1:-3:-3 / analyse=0x3:0x133 / me=umh / subme=10 / psy=1 / psy_rd=1.05:0.00 / mixed_ref=1 / me_range=24 / chroma_me=1 / trellis=2 / 8x8dct=1 / cqm=0 / deadzone=21,11 / fast_pskip=0 / chroma_qp_offset=-2 / threads=12 / lookahead_threads=2 / sliced_threads=0 / nr=0 / decimate=0 / interlaced=0 / bluray_compat=0 / constrained_intra=0 / bframes=8 / b_pyramid=2 / b_adapt=2 / b_bias=0 / direct=3 / weightb=1 / open_gop=0 / weightp=2 / keyint=250 / keyint_min=24 / scenecut=40 / intra_refresh=0 / rc_lookahead=250 / rc=crf / mbtree=0 / crf=16.8 / qcomp=0.60 / qpmin=0 / qpmax=69 / qpstep=4 / vbv_maxrate=62500 / vbv_bufsize=78125 / crf_max=0.0 / nal_hrd=none / filler=0 / ip_ratio=1.30 / pb_ratio=1.20 / aq=3:0.80
Language : English
Default : Yes
Forced : No
Color range : Limited
Color primaries : BT.709
Matrix coefficients : BT.709
Audio #1
ID : 2
Format : AC-3
Format/Info : Audio Coding 3
Commercial name : Dolby Digital
Codec ID : A_AC3
Duration : 1 h 49 min
Bit rate mode : Constant
Bit rate : 640 kb/s
Channel(s) : 6 channels
Channel layout : L R C LFE Ls Rs
Sampling rate : 48.0 kHz
Frame rate : 31.250 FPS (1536 SPF)
Bit depth : 16 bits
Compression mode : Lossy
Stream size : 502 MiB (3%)
Title : Dub [License]
Language : Russian
Service kind : Complete Main
Default : Yes
Forced : Yes
Audio #2
ID : 3
Format : AC-3
Format/Info : Audio Coding 3
Commercial name : Dolby Digital
Codec ID : A_AC3
Duration : 1 h 49 min
Bit rate mode : Constant
Bit rate : 640 kb/s
Channel(s) : 6 channels
Channel layout : L R C LFE Ls Rs
Sampling rate : 48.0 kHz
Frame rate : 31.250 FPS (1536 SPF)
Bit depth : 16 bits
Compression mode : Lossy
Stream size : 503 MiB (3%)
Title : Original
Language : English
Service kind : Complete Main
Default : No
Forced : No
Text #1
ID : 4
Format : UTF-8
Codec ID : S_TEXT/UTF8
Codec ID/Info : UTF-8 Plain Text
Duration : 1 h 22 min
Bit rate : 5 b/s
Count of elements : 94
Stream size : 3.22 KiB (0%)
Title : Forced
Language : Russian
Default : Yes
Forced : Yes
Text #2
ID : 5
Format : UTF-8
Codec ID : S_TEXT/UTF8
Codec ID/Info : UTF-8 Plain Text
Duration : 1 h 42 min
Bit rate : 59 b/s
Count of elements : 1017
Stream size : 45.0 KiB (0%)
Title : Full
Language : Russian
Default : No
Forced : No
Text #3
ID : 6
Format : UTF-8
Codec ID : S_TEXT/UTF8
Codec ID/Info : UTF-8 Plain Text
Duration : 1 h 42 min
Bit rate : 49 b/s
Count of elements : 1447
Stream size : 37.3 KiB (0%)
Title : SDH
Language : English
Default : No
Forced : No
Menu
00:00:00.000 : en:Chapter 01
00:06:31.099 : en:Chapter 02
00:13:47.493 : en:Chapter 03
00:20:31.313 : en:Chapter 04
00:26:27.795 : en:Chapter 05
00:34:08.964 : en:Chapter 06
00:41:10.593 : en:Chapter 07
00:48:41.377 : en:Chapter 08
00:55:50.889 : en:Chapter 09
01:03:21.464 : en:Chapter 10
01:10:28.599 : en:Chapter 11
01:17:21.887 : en:Chapter 12
01:25:47.601 : en:Chapter 13
01:32:19.159 : en:Chapter 14
01:38:48.464 : en:Chapter 15
01:42:39.195 : en:Chapter 16

Трейлер

-     - -

Theseus

Пост 12-Фев-2019 18:13

[Цитировать]

Оверлорд / Overlord- Год выхода: 2018
Страна: США, Канада
Жанр: ужасы, фантастика, боевик, детектив, приключения, военный
Продолжительность: 01:49:47
Перевод: Профессиональный (полное дублирование) [Лицензия]
Субтитры: Русские (Forced, full), английские-Режиссер: Джулиус Эйвери-В ролях: Джован Адепо, Уайатт Рассел, Матильда Олливье, Йохан Филип Асбек, Джон Магаро, Йен де Кестекер, Джейкоб Андерсон, Доминик Эпплуайт, Джанни Тофер, Джозеф Куинн-О фильме: Накануне высадки союзников в Нормандии два американских десантника проникают в оккупированный немцами посёлок, чтобы разрушить их радиомачту. Лазутчикам предстоит столкнуться не только с фашистскими военными, но и с паранормальными последствиями нацистских экспериментов.- -Качество: BDRip 720p
Формат: MKV
Видео кодек: x.264
Аудио кодек: AC3
Видео: MPEG-4 AVC, 1280x534, 5597 Kbit/s, 23.976 fps
Аудио 1: 48 kHz, AC3, 5.1, 640 Kbps | Дублированный | RUS
Аудио 2: 48 kHz, AC3, 5.1, 640 Kbps | Оригинал | ENG-

MediaInfo

Код:
General
Unique ID : 112538994615879609757582998209007803229 (0x54AA38D2A5412DD5B8C2468A7CED5B5D)
Complete name : Overlord.2018.BDRip.720p.seleZen.mkv
Format : Matroska
Format version : Version 4
File size : 5.28 GiB
Duration : 1 h 49 min
Overall bit rate : 6 880 kb/s
Movie name : Overlord 2018 from селезень
Encoded date : UTC 2019-02-12 11:55:45
Writing application : mkvmerge v29.0.0 ('Like It Or Not') 64-bit
Writing library : libebml v1.3.6 + libmatroska v1.4.9
Video
ID : 1
Format : AVC
Format/Info : Advanced Video Codec
Format profile : High@L4.1
Format settings : CABAC / 12 Ref Frames
Format settings, CABAC : Yes
Format settings, ReFrames : 12 frames
Codec ID : V_MPEG4/ISO/AVC
Duration : 1 h 49 min
Bit rate : 5 597 kb/s
Width : 1 280 pixels
Height : 534 pixels
Display aspect ratio : 2.40:1
Frame rate mode : Constant
Frame rate : 23.976 (24000/1001) FPS
Color space : YUV
Chroma subsampling : 4:2:0
Bit depth : 8 bits
Scan type : Progressive
Bits/(Pixel*Frame) : 0.342
Stream size : 4.29 GiB (81%)
Title : MTeam
Writing library : x264 core 157 r2938 2b00a84 TnP@MTeam Mod
Encoding settings : cabac=1 / ref=12 / deblock=1:-3:-3 / analyse=0x3:0x133 / me=umh / subme=10 / psy=1 / psy_rd=1.05:0.00 / mixed_ref=1 / me_range=32 / chroma_me=1 / trellis=2 / 8x8dct=1 / cqm=0 / deadzone=21,11 / fast_pskip=0 / chroma_qp_offset=-2 / threads=12 / lookahead_threads=2 / sliced_threads=0 / nr=0 / decimate=0 / interlaced=0 / bluray_compat=0 / constrained_intra=0 / bframes=8 / b_pyramid=2 / b_adapt=2 / b_bias=0 / direct=3 / weightb=1 / open_gop=0 / weightp=2 / keyint=250 / keyint_min=24 / scenecut=40 / intra_refresh=0 / rc_lookahead=250 / rc=crf / mbtree=0 / crf=17.5 / qcomp=0.60 / qpmin=0 / qpmax=69 / qpstep=4 / vbv_maxrate=62500 / vbv_bufsize=78125 / crf_max=0.0 / nal_hrd=none / filler=0 / ip_ratio=1.30 / pb_ratio=1.20 / aq=3:0.80
Language : English
Default : Yes
Forced : No
Color range : Limited
Color primaries : BT.709
Matrix coefficients : BT.709
Audio #1
ID : 2
Format : AC-3
Format/Info : Audio Coding 3
Commercial name : Dolby Digital
Codec ID : A_AC3
Duration : 1 h 49 min
Bit rate mode : Constant
Bit rate : 640 kb/s
Channel(s) : 6 channels
Channel layout : L R C LFE Ls Rs
Sampling rate : 48.0 kHz
Frame rate : 31.250 FPS (1536 SPF)
Bit depth : 16 bits
Compression mode : Lossy
Stream size : 502 MiB (9%)
Title : Dub [License]
Language : Russian
Service kind : Complete Main
Default : Yes
Forced : Yes
Audio #2
ID : 3
Format : AC-3
Format/Info : Audio Coding 3
Commercial name : Dolby Digital
Codec ID : A_AC3
Duration : 1 h 49 min
Bit rate mode : Constant
Bit rate : 640 kb/s
Channel(s) : 6 channels
Channel layout : L R C LFE Ls Rs
Sampling rate : 48.0 kHz
Frame rate : 31.250 FPS (1536 SPF)
Bit depth : 16 bits
Compression mode : Lossy
Stream size : 503 MiB (9%)
Title : Original
Language : English
Service kind : Complete Main
Default : No
Forced : No
Text #1
ID : 4
Format : UTF-8
Codec ID : S_TEXT/UTF8
Codec ID/Info : UTF-8 Plain Text
Duration : 1 h 22 min
Bit rate : 5 b/s
Count of elements : 94
Stream size : 3.22 KiB (0%)
Title : Forced
Language : Russian
Default : Yes
Forced : Yes
Text #2
ID : 5
Format : UTF-8
Codec ID : S_TEXT/UTF8
Codec ID/Info : UTF-8 Plain Text
Duration : 1 h 42 min
Bit rate : 59 b/s
Count of elements : 1017
Stream size : 45.0 KiB (0%)
Title : Full
Language : Russian
Default : No
Forced : No
Text #3
ID : 6
Format : UTF-8
Codec ID : S_TEXT/UTF8
Codec ID/Info : UTF-8 Plain Text
Duration : 1 h 42 min
Bit rate : 49 b/s
Count of elements : 1447
Stream size : 37.3 KiB (0%)
Title : SDH
Language : English
Default : No
Forced : No
Menu
00:00:00.000 : en:Chapter 01
00:06:31.099 : en:Chapter 02
00:13:47.493 : en:Chapter 03
00:20:31.313 : en:Chapter 04
00:26:27.795 : en:Chapter 05
00:34:08.964 : en:Chapter 06
00:41:10.593 : en:Chapter 07
00:48:41.377 : en:Chapter 08
00:55:50.889 : en:Chapter 09
01:03:21.464 : en:Chapter 10
01:10:28.599 : en:Chapter 11
01:17:21.887 : en:Chapter 12
01:25:47.601 : en:Chapter 13
01:32:19.159 : en:Chapter 14
01:38:48.464 : en:Chapter 15
01:42:39.195 : en:Chapter 16

Трейлер

-    - -

Theseus

Пост 07-Фев-2019 18:56

[Цитировать]

Робин Гуд: Начало / Robin Hood- Год выхода: 2018
Страна: США
Жанр: боевик, триллер, приключения
Продолжительность: 01:56:01
Перевод: Профессиональный (полное дублирование) [Чистый звук]
Субтитры: Отсутствуют-Режиссер: Отто Батхёрст-В ролях: Тэрон Эджертон, Джейми Фокс, Бен Мендельсон, Ив Хьюсон, Джейми Дорнан, Тим Минчин, Пол Андерсон, Ф. Мюррэй Абрахам, Йен Пек, Корнелиус Бут-О фильме: Ветеран Крестовых походов Робин и его командир бросают вызов продажным приспешникам английской короны..- -Качество: WEB-DLRip 1080p
Формат: MKV
Видео кодек: x.264
Аудио кодек: AC3
Видео: AVC, 1920x798 (2.40:1), 23.976 fps, 6 070 kb/s
Аудио: AC-3, 48.0 kHz, 2 ch, 384 kb/s-Сэмпл-Присутствуют текстовые вставки рекламы-

MediaInfo

Общее
Уникальный идентификатор : 249674114348432080358791989564913087264 (0xBBD57C3DAEBAB972A05D0061624DF320)
Полное имя : Робин.Гуд.Начало.2018.WEB-DLRip.[1080p].NNMClub.mkv
Формат : Matroska
Версия формата : Version 4
Размер файла : 5,23 Гбайт
Продолжительность : 1 ч. 56 м.
Режим общего битрейта : Переменный
Общий поток : 6456 Кбит/сек
Дата кодирования : UTC 2019-02-06 11:49:55
Программа кодирования : mkvmerge v8.3.0 ('Over the Horizon') 64bit
Библиотека кодирования : libebml v1.3.1 + libmatroska v1.4.2
Видео
Идентификатор : 1
Формат : AVC
Формат/Информация : Advanced Video Codec
Профиль формата : High@L4.1
Настройки формата : CABAC / 4 Ref Frames
Параметр CABAC формата : Да
Параметр RefFrames формата : 4 кадра
Идентификатор кодека : V_MPEG4/ISO/AVC
Продолжительность : 1 ч. 56 м.
Вид битрейта : Переменный
Битрейт : 6070 Кбит/сек
Максимальный битрейт : 6800 Кбит/сек
Ширина : 1920 пикселей
Высота : 798 пикселей
Соотношение сторон : 2,40:1
Режим частоты кадров : Постоянный
Частота кадров : 23,976 (24000/1001) кадра/сек
Стандарт вещания : Component
Цветовое пространство : YUV
Субдискретизация насыщенности : 4:2:0
Битовая глубина : 8 бит
Тип развёртки : Прогрессивная
Бит/(Пиксели*Кадры) : 0.165
Размер потока : 4,92 Гбайт (94%)
Язык : English
Default : Да
Forced : Нет
Цветовой диапазон : Limited
Основные цвета : BT.709
Характеристики трансфера : BT.709
Коэффициенты матрицы : BT.709
Аудио
Идентификатор : 2
Формат : AC-3
Формат/Информация : Audio Coding 3
Коммерческое название : Dolby Digital
Идентификатор кодека : A_AC3
Продолжительность : 1 ч. 56 м.
Вид битрейта : Постоянный
Битрейт : 384 Кбит/сек
Каналы : 2 канала
Channel layout : L R
Частота : 48,0 КГц
Частота кадров : 31,250 кадров/сек (1536 SPF)
Битовая глубина : 16 бит
Метод сжатия : С потерями
Размер потока : 319 Мбайт (6%)
Язык : Russian
ServiceKind/String : Complete Main
Default : Да
Forced : Нет

Трейлер

-    - -

Theseus

Пост 03-Фев-2019 21:35

[Цитировать]

Оверлорд / Overlord- Год выхода: 2018
Страна: США, Канада
Жанр: ужасы, фантастика, боевик, детектив, приключения, военный
Продолжительность: 01:50:19
Перевод: Профессиональный (полное дублирование) [Чистый звук]
Субтитры: Отсутствуют-Режиссер: Джулиус Эйвери-В ролях: Джован Адепо, Уайатт Рассел, Матильда Олливье, Йохан Филип Асбек, Джон Магаро, Йен де Кестекер, Джейкоб Андерсон, Доминик Эпплуайт, Джанни Тофер, Джозеф Куинн-О фильме: Накануне высадки союзников в Нормандии два американских десантника проникают в оккупированный немцами посёлок, чтобы разрушить их радиомачту. Лазутчикам предстоит столкнуться не только с фашистскими военными, но и с паранормальными последствиями нацистских экспериментов.- -Качество: WEB-DL 1080p
Формат: MKV
Видео кодек: x.264
Аудио кодек: AC3
Видео: AVC, 1912x792 (2.40:1), 23.976 fps, 6 095 kb/s
Аудио: AC-3, 48.0 kHz, 2 ch, 384 kb/s-Сэмпл-Видео реклама вырезана , присутствует звуковая и тестовая реклама-

MediaInfo

General
Unique ID : 216408425951062915205898013881969648668 (0xA2CEBF2CB0FCC0BC88F91618FD1FA41C)
Complete name : Overlord.2O18.D.WEB-DL.1O8Op.mkv
Format : Matroska
Format version : Version 4
File size : 4.99 GiB
Duration : 1 h 50 min
Overall bit rate mode : Variable
Overall bit rate : 6 481 kb/s
Encoded date : UTC 2019-02-03 17:04:19
Writing application : mkvmerge v8.3.0 ('Over the Horizon') 64bit
Writing library : libebml v1.3.1 + libmatroska v1.4.2
Video
ID : 1
Format : AVC
Format/Info : Advanced Video Codec
Format profile : High@L4.1
Format settings : CABAC / 4 Ref Frames
Format settings, CABAC : Yes
Format settings, ReFrames : 4 frames
Codec ID : V_MPEG4/ISO/AVC
Duration : 1 h 50 min
Bit rate mode : Variable
Bit rate : 6 095 kb/s
Maximum bit rate : 6 800 kb/s
Width : 1 912 pixels
Height : 792 pixels
Display aspect ratio : 2.40:1
Frame rate mode : Constant
Frame rate : 23.976 (24000/1001) FPS
Standard : Component
Color space : YUV
Chroma subsampling : 4:2:0
Bit depth : 8 bits
Scan type : Progressive
Bits/(Pixel*Frame) : 0.168
Stream size : 4.70 GiB (94%)
Default : Yes
Forced : No
Color range : Limited
Color primaries : BT.709
Transfer characteristics : BT.709
Matrix coefficients : BT.709
Audio
ID : 2
Format : AC-3
Format/Info : Audio Coding 3
Commercial name : Dolby Digital
Codec ID : A_AC3
Duration : 1 h 50 min
Bit rate mode : Constant
Bit rate : 384 kb/s
Channel(s) : 2 channels
Channel layout : L R
Sampling rate : 48.0 kHz
Frame rate : 31.250 FPS (1536 SPF)
Bit depth : 16 bits
Compression mode : Lossy
Stream size : 303 MiB (6%)
Service kind : Complete Main
Default : Yes
Forced : No

Трейлер

-     - -

Theseus

Пост 03-Фев-2019 17:49

[Цитировать]

Бархатная бензопила / Velvet Buzzsaw- Год выхода: 2019
Страна: США
Жанр: триллер, ужасы, комедия, криминал
Продолжительность: 01:52:30
Перевод: Профессиональный (полное дублирование) | Невафильм
Субтитры: русские, английские и другие-Режиссер: Дэн Гилрой-В ролях: Джейк Джилленхол, Рене Руссо, Тони Коллетт, Зави Эштон, Том Старридж, Наталия Дайер, Давид Диггс, Билли Магнуссен, Джон Малкович, Зэйв Эштон, Питер Гадиот-О фильме: Мир современного искусства населяют самые разные персонажи: ценители, знатоки, художники, воры, обманщики. Все они считают, что знают и любят настоящее искусство. Однажды они сталкиваются с чем-то необычным — потрясающими картинками пожилого художника-затворника. Он словно вложил в свои работы тайный смысл. Герои с жадностью кидаются на полотна, но быстро понимают: за краской и фигурами скрывается нечто зловещее.- -Качество: WEB-DL 720p
Формат: MKV
Видео кодек: x.264
Аудио кодек: AC3
Видео: AVC, 1280x720 (16:9), 24 fps, 2300 kbps
Аудио 1: AC3, 48.0 KHz, 6 ch, 448 Kbps | RUS
Аудио 2: AC3, 48.0 KHz, 6 ch, 448 Kbps | ENG-

Трейлер

-    - -

Theseus

Пост 03-Фев-2019 17:48

[Цитировать]

Бархатная бензопила / Velvet Buzzsaw- Год выхода: 2019
Страна: США
Жанр: триллер, ужасы, комедия, криминал
Продолжительность: 01:52:30
Перевод: Профессиональный (полное дублирование) | Невафильм
Субтитры: русские, английские-Режиссер: Дэн Гилрой-В ролях: Джейк Джилленхол, Рене Руссо, Тони Коллетт, Зави Эштон, Том Старридж, Наталия Дайер, Давид Диггс, Билли Магнуссен, Джон Малкович, Зэйв Эштон, Питер Гадиот-О фильме: Мир современного искусства населяют самые разные персонажи: ценители, знатоки, художники, воры, обманщики. Все они считают, что знают и любят настоящее искусство. Однажды они сталкиваются с чем-то необычным — потрясающими картинками пожилого художника-затворника. Он словно вложил в свои работы тайный смысл. Герои с жадностью кидаются на полотна, но быстро понимают: за краской и фигурами скрывается нечто зловещее.- -Качество: WEB-DL 1080p
Формат: MKV
Видео кодек: x.264
Аудио кодек: E-AC3, Atmos
Видео: AVC, 1920x1080 (16:9), 24 fps, 4220 kbps
Аудио 1: E-AC3, 48.0 KHz, 6 ch, 640 Kbps | RUS
Аудио 2: E-AC3+Atmos, 48.0 KHz, 6 ch, 448 Kbps | ENG-

MediaInfo

Код:
General
Unique ID : 60392758824858328346901399819533718950 (0x2D6F38E653719470DEDCB9D3801095A6)
Complete name : Velvet.Buzzsaw.2019.1080p.NF.WEB-DL.DDP5.1.x264-EniaHD.mkv
Format : Matroska
Format version : Version 4 / Version 2
File size : 4.15 GiB
Duration : 1 h 52 min
Overall bit rate mode : Variable
Overall bit rate : 5 283 kb/s
Movie name : Velvet Buzzsaw (2019) - EniaHD
Encoded date : UTC 2019-02-01 09:12:08
Writing application : mkvmerge v30.1.0 ('Forever And More') 64-bit
Writing library : libebml v1.3.6 + libmatroska v1.4.9
Video
ID : 1
Format : AVC
Format/Info : Advanced Video Codec
Format profile : Main@L4
Format settings : CABAC / 3 Ref Frames
Format settings, CABAC : Yes
Format settings, ReFrames : 3 frames
Codec ID : V_MPEG4/ISO/AVC
Duration : 1 h 52 min
Bit rate mode : Variable
Bit rate : 4 220 kb/s
Maximum bit rate : 6 330 kb/s
Width : 1 920 pixels
Height : 1 080 pixels
Display aspect ratio : 16:9
Frame rate mode : Constant
Frame rate : 24.000 FPS
Color space : YUV
Chroma subsampling : 4:2:0
Bit depth : 8 bits
Scan type : Progressive
Bits/(Pixel*Frame) : 0.085
Stream size : 3.29 GiB (79%)
Writing library : x264 core 148 r2715 7e75228
Encoding settings : cabac=1 / ref=3 / deblock=1:0:0 / analyse=0x1:0x111 / me=umh / subme=10 / psy=1 / psy_rd=1.00:0.00 / mixed_ref=1 / me_range=24 / chroma_me=1 / trellis=2 / 8x8dct=0 / cqm=0 / deadzone=21,11 / fast_pskip=1 / chroma_qp_offset=-2 / threads=8 / lookahead_threads=1 / sliced_threads=0 / nr=0 / decimate=1 / interlaced=0 / bluray_compat=0 / stitchable=1 / constrained_intra=0 / bframes=2 / b_pyramid=0 / b_adapt=2 / b_bias=0 / direct=3 / weightb=1 / open_gop=0 / weightp=2 / keyint=48 / keyint_min=25 / scenecut=0 / intra_refresh=0 / rc_lookahead=48 / rc=2pass / mbtree=1 / bitrate=4220 / ratetol=1.0 / qcomp=0.50 / qpmin=6 / qpmax=51 / qpstep=4 / cplxblur=20.0 / qblur=0.5 / vbv_maxrate=6330 / vbv_bufsize=8440 / nal_hrd=vbr / filler=0 / ip_ratio=1.40 / aq=1:1.00
Language : English
Default : Yes
Forced : No
Audio #1
ID : 2
Format : E-AC-3
Format/Info : Enhanced Audio Coding 3
Codec ID : A_EAC3
Duration : 1 h 52 min
Bit rate mode : Constant
Bit rate : 640 kb/s
Channel(s) : 6 channels
Channel positions : Front: L C R, Side: L R, LFE
Sampling rate : 48.0 kHz
Frame rate : 187.500 FPS (256 SPF)
Compression mode : Lossy
Stream size : 515 MiB (12%)
Title : DUB
Language : Russian
Service kind : Complete Main
Default : Yes
Forced : No
Audio #2
ID : 3
Format : E-AC-3
Format/Info : Enhanced Audio Coding 3
Format profile : E-AC-3+Atmos / E-AC-3
Codec ID : A_EAC3
Duration : 1 h 52 min
Bit rate mode : Constant
Bit rate : 448 kb/s
Channel(s) : 15 objects / 6 channels
Channel positions : 15 objects / Front: L C R, Side: L R, LFE
Sampling rate : 48.0 kHz
Frame rate : 187.500 FPS (256 SPF)
Compression mode : Lossy
Stream size : 361 MiB (8%)
Language : English
Service kind : Complete Main
Default : No
Forced : No
Text #1
ID : 4
Format : UTF-8
Codec ID : S_TEXT/UTF8
Codec ID/Info : UTF-8 Plain Text
Duration : 1 h 51 min
Bit rate : 2 b/s
Count of elements : 40
Stream size : 1.80 KiB (0%)
Title : Forced
Language : Russian
Default : Yes
Forced : Yes
Text #2
ID : 5
Format : UTF-8
Codec ID : S_TEXT/UTF8
Codec ID/Info : UTF-8 Plain Text
Duration : 1 h 51 min
Bit rate : 90 b/s
Count of elements : 1354
Stream size : 73.7 KiB (0%)
Language : Russian
Default : No
Forced : No
Text #3
ID : 6
Format : UTF-8
Codec ID : S_TEXT/UTF8
Codec ID/Info : UTF-8 Plain Text
Duration : 1 h 44 min
Bit rate : 57 b/s
Count of elements : 1296
Stream size : 44.0 KiB (0%)
Language : English
Default : No
Forced : No
Text #4
ID : 7
Format : UTF-8
Codec ID : S_TEXT/UTF8
Codec ID/Info : UTF-8 Plain Text
Duration : 1 h 46 min
Bit rate : 64 b/s
Count of elements : 1490
Stream size : 50.4 KiB (0%)
Title : SDH
Language : English
Default : No
Forced : No

Трейлер

-    - -

Theseus

Пост 03-Фев-2019 17:47

[Цитировать]

Бархатная бензопила / Velvet Buzzsaw- Год выхода: 2019
Страна: США
Жанр: триллер, ужасы, комедия, криминал
Продолжительность: 01:52:30
Перевод: Профессиональный (полное дублирование) | Невафильм
Субтитры: русские, английские-Режиссер: Дэн Гилрой-В ролях: Джейк Джилленхол, Рене Руссо, Тони Коллетт, Зави Эштон, Том Старридж, Наталия Дайер, Давид Диггс, Билли Магнуссен, Джон Малкович, Зэйв Эштон, Питер Гадиот-О фильме: Мир современного искусства населяют самые разные персонажи: ценители, знатоки, художники, воры, обманщики. Все они считают, что знают и любят настоящее искусство. Однажды они сталкиваются с чем-то необычным — потрясающими картинками пожилого художника-затворника. Он словно вложил в свои работы тайный смысл. Герои с жадностью кидаются на полотна, но быстро понимают: за краской и фигурами скрывается нечто зловещее.- -Качество: WEBRip 1080p
Формат: MKV
Видео кодек: x.264
Аудио кодек: E-AC3, Atmos
Видео: AVC, 1920x1038 (16:9), 24 fps, ~12 mbps
Аудио 1: E-AC3, 48.0 KHz, 6 ch, 640 Kbps | RUS
Аудио 2: E-AC3+Atmos, 48.0 KHz, 6 ch, 448 Kbps | ENG-

MediaInfo

Код:
General
Unique ID                      : 296906806107881367689191464911042546069 (0xDF5E2BBD52185410F74A1327AE288995)
Complete name                  : Velvet.Buzzsaw.2019.1080p.WEBRip.X264-EniaHD.mkv
Format                         : Matroska
Format version                 : Version 4 / Version 2
File size                      : 10.3 GiB
Duration                       : 1 h 51 min
Overall bit rate               : 13.1 Mb/s
Movie name                     : Velvet Buzzsaw (2019) - EniaHD
Encoded date                   : UTC 2019-02-01 12:58:03
Writing application            : mkvmerge v30.1.0 ('Forever And More') 64-bit
Writing library                : libebml v1.3.6 + libmatroska v1.4.9
Video
ID                             : 1
Format                         : AVC
Format/Info                    : Advanced Video Codec
Format profile                 : High@L4.1
Format settings                : CABAC / 4 Ref Frames
Format settings, CABAC         : Yes
Format settings, ReFrames      : 4 frames
Codec ID                       : V_MPEG4/ISO/AVC
Duration                       : 1 h 51 min
Bit rate                       : 12.0 Mb/s
Width                          : 1 920 pixels
Height                         : 1 038 pixels
Display aspect ratio           : 1.85:1
Frame rate mode                : Constant
Frame rate                     : 24.000 FPS
Color space                    : YUV
Chroma subsampling             : 4:2:0
Bit depth                      : 8 bits
Scan type                      : Progressive
Bits/(Pixel*Frame)             : 0.251
Stream size                    : 9.40 GiB (92%)
Writing library                : x264 core 157 r2935+3 (master: 545de2f / tmod: 0f48dd4) [X86_64]
Encoding settings              : cabac=1 / ref=4 / deblock=1:-3:-3 / analyse=0x3:0x133 / me=umh / subme=11 / psy=1 / psy_rd=1.05:0.15 / mixed_ref=1 / me_range=48 / chroma_me=1 / trellis=2 / 8x8dct=1 / cqm=0 / deadzone=6,6 / fast_pskip=0 / chroma_qp_offset=-3 / threads=32 / lookahead_threads=8 / sliced_threads=0 / nr=0 / decimate=0 / interlaced=0 / bluray_compat=0 / constrained_intra=0 / bframes=10 / b_pyramid=2 / b_adapt=2 / b_bias=0 / direct=3 / weightb=1 / open_gop=0 / weightp=2 / keyint=250 / keyint_min=24 / scenecut=40 / intra_refresh=0 / rc_lookahead=60 / rc=crf / mbtree=0 / crf=17.0 / qcomp=0.70 / qpmin=0 / qpmax=69 / qpstep=4 / vbv_maxrate=62500 / vbv_bufsize=78125 / crf_max=0.0 / nal_hrd=none / filler=0 / ip_ratio=1.25 / pb_ratio=1.20 / aq=3:0.70
Language                       : English
Default                        : Yes
Forced                         : No
Audio #1
ID                             : 2
Format                         : E-AC-3
Format/Info                    : Enhanced Audio Coding 3
Codec ID                       : A_EAC3
Duration                       : 1 h 51 min
Bit rate mode                  : Constant
Bit rate                       : 640 kb/s
Channel(s)                     : 6 channels
Channel positions              : Front: L C R, Side: L R, LFE
Sampling rate                  : 48.0 kHz
Frame rate                     : 187.500 FPS (256 SPF)
Compression mode               : Lossy
Stream size                    : 512 MiB (5%)
Language                       : Russian
Service kind                   : Complete Main
Default                        : Yes
Forced                         : No
Audio #2
ID                             : 3
Format                         : E-AC-3
Format/Info                    : Enhanced Audio Coding 3
Format profile                 : E-AC-3+Atmos / E-AC-3
Codec ID                       : A_EAC3
Duration                       : 1 h 51 min
Bit rate mode                  : Constant
Bit rate                       : 448 kb/s
Channel(s)                     : 15 objects / 6 channels
Channel positions              : 15 objects / Front: L C R, Side: L R, LFE
Sampling rate                  : 48.0 kHz
Frame rate                     : 187.500 FPS (256 SPF)
Compression mode               : Lossy
Stream size                    : 359 MiB (3%)
Language                       : English
Service kind                   : Complete Main
Default                        : No
Forced                         : No
Text #1
ID                             : 4
Format                         : UTF-8
Codec ID                       : S_TEXT/UTF8
Codec ID/Info                  : UTF-8 Plain Text
Duration                       : 1 h 51 min
Bit rate                       : 2 b/s
Count of elements              : 40
Stream size                    : 1.80 KiB (0%)
Title                          : Forced
Language                       : Russian
Default                        : Yes
Forced                         : Yes
Text #2
ID                             : 5
Format                         : UTF-8
Codec ID                       : S_TEXT/UTF8
Codec ID/Info                  : UTF-8 Plain Text
Duration                       : 1 h 51 min
Bit rate                       : 89 b/s
Count of elements              : 1354
Stream size                    : 72.8 KiB (0%)
Language                       : Russian
Default                        : No
Forced                         : No
Text #3
ID                             : 6
Format                         : UTF-8
Codec ID                       : S_TEXT/UTF8
Codec ID/Info                  : UTF-8 Plain Text
Duration                       : 1 h 44 min
Bit rate                       : 56 b/s
Count of elements              : 1313
Stream size                    : 43.5 KiB (0%)
Language                       : English
Default                        : No
Forced                         : No
Text #4
ID                             : 7
Format                         : UTF-8
Codec ID                       : S_TEXT/UTF8
Codec ID/Info                  : UTF-8 Plain Text
Duration                       : 1 h 46 min
Bit rate                       : 63 b/s
Count of elements              : 1518
Stream size                    : 49.2 KiB (0%)
Title                          : SDH
Language                       : English
Default                        : No
Forced                         : No

Трейлер

-    - -

Theseus

Пост 03-Фев-2019 17:46

[Цитировать]

Бархатная бензопила / Velvet Buzzsaw- Год выхода: 2019
Страна: США
Жанр: триллер, ужасы, комедия, криминал
Продолжительность: 01:52:30
Перевод: Профессиональный (полное дублирование) | Невафильм
Субтитры: русские, английские и другие-Режиссер: Дэн Гилрой-В ролях: Джейк Джилленхол, Рене Руссо, Тони Коллетт, Зави Эштон, Том Старридж, Наталия Дайер, Давид Диггс, Билли Магнуссен, Джон Малкович, Зэйв Эштон, Питер Гадиот-О фильме: Мир современного искусства населяют самые разные персонажи: ценители, знатоки, художники, воры, обманщики. Все они считают, что знают и любят настоящее искусство. Однажды они сталкиваются с чем-то необычным — потрясающими картинками пожилого художника-затворника. Он словно вложил в свои работы тайный смысл. Герои с жадностью кидаются на полотна, но быстро понимают: за краской и фигурами скрывается нечто зловещее.- -Качество: WEB-DL 1080p
Формат: MKV
Видео кодек: H.265
Аудио кодек: E-AC3, Atmos
Видео: HEVC, 1920x1080 (16:9), 24 fps, 5 477 Kbps
Аудио 1: E-AC3, 48.0 KHz, 6 ch, 640 Kbps | RUS
Аудио 2: E-AC3+Atmos, 48.0 KHz, 6 ch, 448 Kbps | ENG-

MediaInfo

Код:
Полное имя                               : Velvet.Buzzsaw.2019.1080p.WEB-DL.HDR.HEVC.DUB.EniaHD.mkv
Формат                                   : Matroska
Версия формата                           : Version 4
Размер файла                             : 5,15 Гбайт
Продолжительность                        : 1 ч. 52 м.
Общий поток                              : 6550 Кбит/сек
Название фильма                          : Бархатная бензопила (2019)
Дата кодирования                         : UTC 2019-02-01 09:47:02
Программа кодирования                    : mkvmerge v30.1.0 ('Forever And More') 32-bit
Библиотека кодирования                   : libebml v1.3.6 + libmatroska v1.4.9
Attachments                              : poster.velvet.buzzsaw.png
Видео
Идентификатор                            : 1
Формат                                   : HEVC
Формат/Информация                        : High Efficiency Video Coding
Коммерческое название                    : HDR10
Профиль формата                          : Main 10@L4@Main
Идентификатор кодека                     : V_MPEGH/ISO/HEVC
Продолжительность                        : 1 ч. 51 м.
Битрейт                                  : 5477 Кбит/сек
Ширина                                   : 1920 пикселей
Высота                                   : 1080 пикселей
Соотношение сторон                       : 16:9
Режим частоты кадров                     : Постоянный
Частота кадров                           : 24,000 кадра/сек
Цветовое пространство                    : YUV
Субдискретизация насыщенности            : 4:2:0 (Type 2)
Битовая глубина                          : 10 бит
Бит/(Пиксели*Кадры)                      : 0.110
Размер потока                            : 4,28 Гбайт (83%)
Заголовок                                : Velvet.Buzzsaw.2019.1080p.WEB-DL.HDR.HEVC.DUB.EniaHD
Язык                                     : English
Default                                  : Да
Forced                                   : Нет
Цветовой диапазон                        : Limited
Основные цвета                           : BT.2020
Характеристики трансфера                 : PQ
Коэффициенты матрицы                     : BT.2020 non-constant
MasteringDisplay_ColorPrimaries          : Display P3
MasteringDisplay_Luminance               : min: 0.0050 cd/m2, max: 4000 cd/m2
MaxCLL                                   : 4375 cd/m2
MaxFALL                                  : 1129 cd/m2
Аудио #1
Идентификатор                            : 2
Формат                                   : E-AC-3
Формат/Информация                        : Enhanced AC-3
Коммерческое название                    : Dolby Digital Plus
Идентификатор кодека                     : A_EAC3
Продолжительность                        : 1 ч. 52 м.
Вид битрейта                             : Постоянный
Битрейт                                  : 640 Кбит/сек
Каналы                                   : 6 каналов
Channel layout                           : L R C LFE Ls Rs
Частота                                  : 48,0 КГц
Частота кадров                           : 31,250 кадров/сек (1536 SPF)
Метод сжатия                             : С потерями
Размер потока                            : 515 Мбайт (10%)
Заголовок                                : E-AC3 5.1 @ 640 kbps - DUB, Невафильм
Язык                                     : Russian
ServiceKind/String                       : Complete Main
Default                                  : Да
Forced                                   : Нет
Аудио #2
Идентификатор                            : 3
Формат                                   : E-AC-3 JOC
Формат/Информация                        : Enhanced AC-3 with Joint Object Coding
Коммерческое название                    : Dolby Digital Plus with Dolby Atmos
Идентификатор кодека                     : A_EAC3
Продолжительность                        : 1 ч. 52 м.
Вид битрейта                             : Постоянный
Битрейт                                  : 448 Кбит/сек
Каналы                                   : 6 каналов
Channel layout                           : L R C LFE Ls Rs
Частота                                  : 48,0 КГц
Частота кадров                           : 31,250 кадров/сек (1536 SPF)
Метод сжатия                             : С потерями
Размер потока                            : 361 Мбайт (7%)
Заголовок                                : E-AC3 + Atmos 5.1 @ 448 kbps - Original
Язык                                     : English
ServiceKind/String                       : Complete Main
Default                                  : Нет
Forced                                   : Нет
Complexity index                         : 16
Number of dynamic objects                : 15
Bed channel count                        : 1 канал
Bed channel configuration                : LFE
Текст #1
Идентификатор                            : 4
Формат                                   : UTF-8
Идентификатор кодека                     : S_TEXT/UTF8
Идентификатор кодека/Информация          : UTF-8 Plain Text
Продолжительность                        : 1 ч. 46 м.
Битрейт                                  : 1 бит/сек
ElementCount                             : 36
Размер потока                            : 1,53 Кбайт (0%)
Заголовок                                : Forced
Язык                                     : Russian
Default                                  : Да
Forced                                   : Да
Текст #2
Идентификатор                            : 5
Формат                                   : UTF-8
Идентификатор кодека                     : S_TEXT/UTF8
Идентификатор кодека/Информация          : UTF-8 Plain Text
Продолжительность                        : 1 ч. 51 м.
Битрейт                                  : 90 бит/сек
ElementCount                             : 1354
Размер потока                            : 74,0 Кбайт (0%)
Заголовок                                : Full
Язык                                     : Russian
Default                                  : Нет
Forced                                   : Нет
Текст #3
Идентификатор                            : 6
Формат                                   : UTF-8
Идентификатор кодека                     : S_TEXT/UTF8
Идентификатор кодека/Информация          : UTF-8 Plain Text
Продолжительность                        : 1 ч. 46 м.
Битрейт                                  : 64 бит/сек
ElementCount                             : 1518
Размер потока                            : 50,4 Кбайт (0%)
Заголовок                                : Full SDH
Язык                                     : English
Default                                  : Нет
Forced                                   : Нет
Текст #4
Идентификатор                            : 7
Формат                                   : UTF-8
Идентификатор кодека                     : S_TEXT/UTF8
Идентификатор кодека/Информация          : UTF-8 Plain Text
Продолжительность                        : 1 ч. 51 м.
Битрейт                                  : 47 бит/сек
ElementCount                             : 1345
Размер потока                            : 39,2 Кбайт (0%)
Заголовок                                : Castilian
Язык                                     : Spanish
Default                                  : Нет
Forced                                   : Нет
Текст #5
Идентификатор                            : 8
Формат                                   : UTF-8
Идентификатор кодека                     : S_TEXT/UTF8
Идентификатор кодека/Информация          : UTF-8 Plain Text
Продолжительность                        : 1 ч. 51 м.
Битрейт                                  : 56 бит/сек
ElementCount                             : 1369
Размер потока                            : 45,8 Кбайт (0%)
Заголовок                                : Spanish
Язык                                     : Spanish
Default                                  : Нет
Forced                                   : Нет
Текст #6
Идентификатор                            : 9
Формат                                   : UTF-8
Идентификатор кодека                     : S_TEXT/UTF8
Идентификатор кодека/Информация          : UTF-8 Plain Text
Продолжительность                        : 1 ч. 51 м.
Битрейт                                  : 53 бит/сек
ElementCount                             : 1329
Размер потока                            : 43,8 Кбайт (0%)
Заголовок                                : French
Язык                                     : French
Default                                  : Нет
Forced                                   : Нет
Текст #7
Идентификатор                            : 10
Формат                                   : UTF-8
Идентификатор кодека                     : S_TEXT/UTF8
Идентификатор кодека/Информация          : UTF-8 Plain Text
Продолжительность                        : 1 ч. 51 м.
Битрейт                                  : 52 бит/сек
ElementCount                             : 1243
Размер потока                            : 43,3 Кбайт (0%)
Заголовок                                : German
Язык                                     : German
Default                                  : Нет
Forced                                   : Нет
Текст #8
Идентификатор                            : 11
Формат                                   : UTF-8
Идентификатор кодека                     : S_TEXT/UTF8
Идентификатор кодека/Информация          : UTF-8 Plain Text
Продолжительность                        : 1 ч. 51 м.
Битрейт                                  : 52 бит/сек
ElementCount                             : 1313
Размер потока                            : 42,5 Кбайт (0%)
Заголовок                                : Italian
Язык                                     : Italian
Default                                  : Нет
Forced                                   : Нет
Текст #9
Идентификатор                            : 12
Формат                                   : UTF-8
Идентификатор кодека                     : S_TEXT/UTF8
Идентификатор кодека/Информация          : UTF-8 Plain Text
Продолжительность                        : 1 ч. 51 м.
Битрейт                                  : 53 бит/сек
ElementCount                             : 1352
Размер потока                            : 43,6 Кбайт (0%)
Заголовок                                : Portuguese
Язык                                     : Portuguese
Default                                  : Нет
Forced                                   : Нет
Текст #10
Идентификатор                            : 13
Формат                                   : UTF-8
Идентификатор кодека                     : S_TEXT/UTF8
Идентификатор кодека/Информация          : UTF-8 Plain Text
Продолжительность                        : 1 ч. 51 м.
Битрейт                                  : 51 бит/сек
ElementCount                             : 1266
Размер потока                            : 42,3 Кбайт (0%)
Заголовок                                : Brazilian Portuguese
Язык                                     : Portuguese
Default                                  : Нет
Forced                                   : Нет
Текст #11
Идентификатор                            : 14
Формат                                   : UTF-8
Идентификатор кодека                     : S_TEXT/UTF8
Идентификатор кодека/Информация          : UTF-8 Plain Text
Продолжительность                        : 1 ч. 51 м.
Битрейт                                  : 49 бит/сек
ElementCount                             : 1263
Размер потока                            : 40,8 Кбайт (0%)
Заголовок                                : Polish
Язык                                     : Polish
Default                                  : Нет
Forced                                   : Нет
Текст #12
Идентификатор                            : 15
Формат                                   : UTF-8
Идентификатор кодека                     : S_TEXT/UTF8
Идентификатор кодека/Информация          : UTF-8 Plain Text
Продолжительность                        : 1 ч. 51 м.
Битрейт                                  : 52 бит/сек
ElementCount                             : 1342
Размер потока                            : 43,1 Кбайт (0%)
Заголовок                                : Turkish
Язык                                     : Turkish
Default                                  : Нет
Forced                                   : Нет
Текст #13
Идентификатор                            : 16
Формат                                   : UTF-8
Идентификатор кодека                     : S_TEXT/UTF8
Идентификатор кодека/Информация          : UTF-8 Plain Text
Продолжительность                        : 1 ч. 51 м.
Битрейт                                  : 52 бит/сек
ElementCount                             : 1226
Размер потока                            : 43,0 Кбайт (0%)
Заголовок                                : Swedish
Язык                                     : Swedish
Default                                  : Нет
Forced                                   : Нет
Текст #14
Идентификатор                            : 17
Формат                                   : UTF-8
Идентификатор кодека                     : S_TEXT/UTF8
Идентификатор кодека/Информация          : UTF-8 Plain Text
Продолжительность                        : 1 ч. 51 м.
Битрейт                                  : 53 бит/сек
ElementCount                             : 1354
Размер потока                            : 43,5 Кбайт (0%)
Заголовок                                : Danish
Язык                                     : Danish
Default                                  : Нет
Forced                                   : Нет
Текст #15
Идентификатор                            : 18
Формат                                   : UTF-8
Идентификатор кодека                     : S_TEXT/UTF8
Идентификатор кодека/Информация          : UTF-8 Plain Text
Продолжительность                        : 1 ч. 51 м.
Битрейт                                  : 51 бит/сек
ElementCount                             : 1120
Размер потока                            : 42,1 Кбайт (0%)
Заголовок                                : Finnish
Язык                                     : Finnish
Default                                  : Нет
Forced                                   : Нет
Текст #16
Идентификатор                            : 19
Формат                                   : UTF-8
Идентификатор кодека                     : S_TEXT/UTF8
Идентификатор кодека/Информация          : UTF-8 Plain Text
Продолжительность                        : 1 ч. 51 м.
Битрейт                                  : 49 бит/сек
ElementCount                             : 1245
Размер потока                            : 40,1 Кбайт (0%)
Заголовок                                : Dutch
Язык                                     : Dutch
Default                                  : Нет
Forced                                   : Нет
Текст #17
Идентификатор                            : 20
Формат                                   : UTF-8
Идентификатор кодека                     : S_TEXT/UTF8
Идентификатор кодека/Информация          : UTF-8 Plain Text
Продолжительность                        : 1 ч. 51 м.
Битрейт                                  : 50 бит/сек
ElementCount                             : 1351
Размер потока                            : 41,1 Кбайт (0%)
Заголовок                                : Norwegian
Язык                                     : Norwegian
Default                                  : Нет
Forced                                   : Нет
Текст #18
Идентификатор                            : 21
Формат                                   : UTF-8
Идентификатор кодека                     : S_TEXT/UTF8
Идентификатор кодека/Информация          : UTF-8 Plain Text
Продолжительность                        : 1 ч. 51 м.
Битрейт                                  : 93 бит/сек
ElementCount                             : 1374
Размер потока                            : 76,4 Кбайт (0%)
Заголовок                                : Greek
Язык                                     : Greek
Default                                  : Нет
Forced                                   : Нет
Текст #19
Идентификатор                            : 22
Формат                                   : UTF-8
Идентификатор кодека                     : S_TEXT/UTF8
Идентификатор кодека/Информация          : UTF-8 Plain Text
Продолжительность                        : 1 ч. 51 м.
Битрейт                                  : 82 бит/сек
ElementCount                             : 1334
Размер потока                            : 67,5 Кбайт (0%)
Заголовок                                : Hebrew
Язык                                     : Hebrew
Default                                  : Нет
Forced                                   : Нет
Текст #20
Идентификатор                            : 23
Формат                                   : UTF-8
Идентификатор кодека                     : S_TEXT/UTF8
Идентификатор кодека/Информация          : UTF-8 Plain Text
Продолжительность                        : 1 ч. 51 м.
Битрейт                                  : 93 бит/сек
ElementCount                             : 1359
Размер потока                            : 76,7 Кбайт (0%)
Заголовок                                : Arabic
Язык                                     : Arabic
Default                                  : Нет
Forced                                   : Нет
Текст #21
Идентификатор                            : 24
Формат                                   : UTF-8
Идентификатор кодека                     : S_TEXT/UTF8
Идентификатор кодека/Информация          : UTF-8 Plain Text
Продолжительность                        : 1 ч. 51 м.
Битрейт                                  : 52 бит/сек
ElementCount                             : 1345
Размер потока                            : 42,6 Кбайт (0%)
Заголовок                                : Romanian
Язык                                     : Romanian
Default                                  : Нет
Forced                                   : Нет
Текст #22
Идентификатор                            : 25
Формат                                   : UTF-8
Идентификатор кодека                     : S_TEXT/UTF8
Идентификатор кодека/Информация          : UTF-8 Plain Text
Продолжительность                        : 1 ч. 51 м.
Битрейт                                  : 54 бит/сек
ElementCount                             : 1293
Размер потока                            : 44,3 Кбайт (0%)
Заголовок                                : Indonesian
Язык                                     : Indonesian
Default                                  : Нет
Forced                                   : Нет
Текст #23
Идентификатор                            : 26
Формат                                   : UTF-8
Идентификатор кодека                     : S_TEXT/UTF8
Идентификатор кодека/Информация          : UTF-8 Plain Text
Продолжительность                        : 1 ч. 51 м.
Битрейт                                  : 126 бит/сек
ElementCount                             : 1377
Размер потока                            : 104 Кбайт (0%)
Заголовок                                : Thai
Язык                                     : Thai
Default                                  : Нет
Forced                                   : Нет
Текст #24
Идентификатор                            : 27
Формат                                   : UTF-8
Идентификатор кодека                     : S_TEXT/UTF8
Идентификатор кодека/Информация          : UTF-8 Plain Text
Продолжительность                        : 1 ч. 51 м.
Битрейт                                  : 62 бит/сек
ElementCount                             : 1395
Размер потока                            : 51,2 Кбайт (0%)
Заголовок                                : Korean
Язык                                     : Korean
Default                                  : Нет
Forced                                   : Нет
Текст #25
Идентификатор                            : 28
Формат                                   : UTF-8
Идентификатор кодека                     : S_TEXT/UTF8
Идентификатор кодека/Информация          : UTF-8 Plain Text
Продолжительность                        : 1 ч. 51 м.
Битрейт                                  : 51 бит/сек
ElementCount                             : 1386
Размер потока                            : 42,3 Кбайт (0%)
Заголовок                                : Chinese (Simplified)
Язык                                     : Chinese
Default                                  : Нет
Forced                                   : Нет
Текст #26
Идентификатор                            : 29
Формат                                   : UTF-8
Идентификатор кодека                     : S_TEXT/UTF8
Идентификатор кодека/Информация          : UTF-8 Plain Text
Продолжительность                        : 1 ч. 51 м.
Битрейт                                  : 46 бит/сек
ElementCount                             : 1379
Размер потока                            : 37,7 Кбайт (0%)
Заголовок                                : Chinese (Traditional)
Язык                                     : Chinese
Default                                  : Нет
Forced                                   : Нет
Текст #27
Идентификатор                            : 30
Формат                                   : UTF-8
Идентификатор кодека                     : S_TEXT/UTF8
Идентификатор кодека/Информация          : UTF-8 Plain Text
Продолжительность                        : 1 ч. 51 м.
Битрейт                                  : 46 бит/сек
ElementCount                             : 1324
Размер потока                            : 37,8 Кбайт (0%)
Заголовок                                : Japanese
Язык                                     : Japanese
Default                                  : Нет
Forced                                   : Нет

Трейлер

-    - -

Theseus

Пост 01-Фев-2019 18:36

[Цитировать]

Щелкунчик и четыре королевства / The Nutcracker and the Four Realms- Год выхода: 2018
Страна: США
Жанр: фэнтези, приключения, семейный
Продолжительность: 01:39:16
Перевод : Профессиональный (полное дублирование) | iTunes
Субтитры: Русские, английские-Режиссер: Лассе Халльстрём, Джо Джонстон-В ролях: Маккензи Фой, Джейден Фовора-Найт, Кира Найтли, Хелен Миррен, Морган Фриман, Мисти Коуплэнд, Эухенио Дербес, Ричард Э. Грант, Мэттью Макфэдиен, Сергей Полунин-О фильме: Получив необычный подарок на Рождество, юная Клара отправляется в захватывающее путешествие по загадочным местам: Стране Снегов, Стране Цветов и Стране Сладостей. Но девушке нужно попасть и в четвертое королевство, где ей придется столкнуться с целой армией мышей во главе с невероятно опасным Мышиным Королем- -Качество: BDRemux 2160p
Контейнер: MKV
Видео кодек: H.265
Аудио кодек: AC3, Dolby TrueHD, DTS-HD MA
Видео: HEVC, 3840x2160 (16:9), 23,976 fps, H.265, 71,7 Mbps
Аудио #1: 48 kHz, AC3, 6 ch, 384 kbps | RUS
Аудио #2: 48 kHz, Dolby TrueHD, 8 ch, 4942 kbps | ENG
Аудио #3: 48 kHz, DTS-HD MA, 8 ch, 3940 kbps | ENG
Аудио #4: 48 kHz, AC3, 6 ch, 640 kbps | ENG-

MI

General
Unique ID : 42514568534478558146575193615894764591 (0x1FFC02104E99A65A2ADB5C7D1642DC2F)
Complete name : The.Nutcracker.and.the.Four.Realms.2018.BluRay.REMUX.HEVC.HDR.2160p.mkv
Format : Matroska
Format version : Version 4
File size : 56.3 GiB
Duration : 1 h 39 min
Overall bit rate mode : Variable
Overall bit rate : 81.2 Mb/s
Encoded date : UTC 2019-02-01 06:09:48
Writing application : mkvmerge v30.1.0 ('Forever And More') 64-bit
Writing library : libebml v1.3.6 + libmatroska v1.4.9
Attachments : poster.jpg
Video
ID : 1
Format : HEVC
Format/Info : High Efficiency Video Coding
Commercial name : HDR10
Format profile : Main 10@L5.1@High
Codec ID : V_MPEGH/ISO/HEVC
Duration : 1 h 39 min
Bit rate : 71.7 Mb/s
Width : 3 840 pixels
Height : 2 160 pixels
Display aspect ratio : 16:9
Frame rate mode : Constant
Frame rate : 23.976 (24000/1001) FPS
Color space : YUV
Chroma subsampling : 4:2:0 (Type 2)
Bit depth : 10 bits
Bits/(Pixel*Frame) : 0.360
Stream size : 49.7 GiB (88%)
Default : Yes
Forced : No
Color range : Limited
Color primaries : BT.2020
Transfer characteristics : PQ
Matrix coefficients : BT.2020 non-constant
Mastering display color pri : Display P3
Mastering display luminance : min: 0.0050 cd/m2, max: 4000 cd/m2
Maximum Content Light Level : 183 cd/m2
Maximum Frame-Average Light : 149 cd/m2
Audio #1
ID : 2
Format : AC-3
Format/Info : Audio Coding 3
Commercial name : Dolby Digital
Codec ID : A_AC3
Duration : 1 h 39 min
Bit rate mode : Constant
Bit rate : 384 kb/s
Channel(s) : 6 channels
Channel layout : L R C LFE Ls Rs
Sampling rate : 48.0 kHz
Frame rate : 31.250 FPS (1536 SPF)
Bit depth : 16 bits
Compression mode : Lossy
Delay relative to video : -15 ms
Stream size : 273 MiB (0%)
Title : Дубляж iTunes
Language : Russian
Service kind : Complete Main
Default : Yes
Forced : No
Audio #2
ID : 3
Format : MLP FBA 16-ch
Format/Info : Meridian Lossless Packing FBA with 16-channel presentation
Commercial name : Dolby TrueHD with Dolby Atmos
Codec ID : A_TRUEHD
Duration : 1 h 39 min
Bit rate mode : Variable
Bit rate : 4 942 kb/s
Maximum bit rate : 7 977 kb/s
Channel(s) : 8 channels
Channel layout : L R C LFE Ls Rs Lb Rb
Sampling rate : 48.0 kHz
Frame rate : 1 200.000 FPS (40 SPF)
Compression mode : Lossless
Stream size : 3.43 GiB (6%)
Language : English
Default : No
Forced : No
Number of dynamic objects : 13
Bed channel count : 1 channel
Bed channel configuration : LFE
Audio #3
ID : 4
Format : DTS XLL
Format/Info : Digital Theater Systems
Commercial name : DTS-HD Master Audio
Codec ID : A_DTS
Duration : 1 h 39 min
Bit rate mode : Variable
Bit rate : 3 490 kb/s
Channel(s) : 8 channels
Channel layout : C L R LFE Lb Rb Lss Rss
Sampling rate : 48.0 kHz
Frame rate : 93.750 FPS (512 SPF)
Bit depth : 24 bits
Compression mode : Lossless
Delay relative to video : -15 ms
Stream size : 2.42 GiB (4%)
Language : English
Default : No
Forced : No
Audio #4
ID : 5
Format : AC-3
Format/Info : Audio Coding 3
Commercial name : Dolby Digital
Codec ID : A_AC3
Duration : 1 h 39 min
Bit rate mode : Constant
Bit rate : 640 kb/s
Channel(s) : 6 channels
Channel layout : L R C LFE Ls Rs
Sampling rate : 48.0 kHz
Frame rate : 31.250 FPS (1536 SPF)
Bit depth : 16 bits
Compression mode : Lossy
Stream size : 454 MiB (1%)
Language : English
Service kind : Complete Main
Default : No
Forced : No
Text #1
ID : 6
Format : UTF-8
Codec ID : S_TEXT/UTF8
Codec ID/Info : UTF-8 Plain Text
Duration : 1 h 27 min
Bit rate : 72 b/s
Count of elements : 1043
Stream size : 46.6 KiB (0%)
Title : Полные
Language : Russian
Default : No
Forced : No
Text #2
ID : 7
Format : UTF-8
Codec ID : S_TEXT/UTF8
Codec ID/Info : UTF-8 Plain Text
Duration : 1 h 36 min
Bit rate : 72 b/s
Count of elements : 1339
Stream size : 51.4 KiB (0%)
Title : Полные SDH
Language : Russian
Default : No
Forced : No
Text #3
ID : 8
Format : UTF-8
Codec ID : S_TEXT/UTF8
Codec ID/Info : UTF-8 Plain Text
Duration : 1 h 27 min
Bit rate : 43 b/s
Count of elements : 1098
Stream size : 27.7 KiB (0%)
Title : Full
Language : English
Default : Yes
Forced : No
Text #4
ID : 9
Format : UTF-8
Codec ID : S_TEXT/UTF8
Codec ID/Info : UTF-8 Plain Text
Duration : 1 h 36 min
Bit rate : 45 b/s
Count of elements : 1340
Stream size : 32.4 KiB (0%)
Title : Full SDH
Language : English
Default : No
Forced : No
Menu
00:00:00.000 : :Chapter 1
00:08:39.101 : :Chapter 2
00:16:47.256 : :Chapter 3
00:25:37.744 : :Chapter 4
00:34:20.892 : :Chapter 5
00:43:28.397 : :Chapter 6
00:48:31.992 : :Chapter 7
00:56:07.655 : :Chapter 8
00:59:09.546 : :Chapter 9
01:04:57.310 : :Chapter 10
01:11:49.722 : :Chapter 11
01:18:10.519 : :Chapter 12
01:22:04.002 : :Chapter 13
01:30:06.275 : :Chapter 14

Трейлер

-     - -

Theseus

Пост 01-Фев-2019 18:34

[Цитировать]

Щелкунчик и четыре королевства / The Nutcracker and the Four Realms- Год выхода: 2018
Страна: США
Жанр: фэнтези, приключения, семейный
Продолжительность: 01:39:16
Перевод : Профессиональный (полное дублирование) | iTunes
Субтитры: Русские, английские-Режиссер: Лассе Халльстрём, Джо Джонстон-В ролях: Маккензи Фой, Джейден Фовора-Найт, Кира Найтли, Хелен Миррен, Морган Фриман, Мисти Коуплэнд, Эухенио Дербес, Ричард Э. Грант, Мэттью Макфэдиен, Сергей Полунин-О фильме: Получив необычный подарок на Рождество, юная Клара отправляется в захватывающее путешествие по загадочным местам: Стране Снегов, Стране Цветов и Стране Сладостей. Но девушке нужно попасть и в четвертое королевство, где ей придется столкнуться с целой армией мышей во главе с невероятно опасным Мышиным Королем- -Качество: BDRip 2160p
Формат: MKV
Видео кодек: H.265
Аудио кодек: AC3
Видео: HEVC, 3840x2076 (1.85:1), 23,976 fps, H.265, 22,7 Mbps
Аудио #1: 48 kHz, AC3, 6 ch, 384 kbps | RUS
Аудио #2: 48 kHz, AC3, 6 ch, 640 kbps | ENG-

MI

Общее
Уникальный идентификатор : 212556940702367836691525679241174818495 (0x9FE8FA4A74A6352BB296B25CE8719EBF)
Полное имя : The.Nutcracker.and.the.Four.Realms.2018.2160p.UHD.BDRip.x265.10bit.Master5.mkv
Формат : Matroska
Версия формата : Version 4
Размер файла : 16,5 Гбайт
Продолжительность : 1 ч. 39 м.
Общий поток : 23,7 Мбит/сек
Название фильма : The.Nutcracker.and.the.Four.Realms.2018.2160p.UHD.BDRip.x265.10bit.Master5
Дата кодирования : UTC 2019-01-31 22:59:43
Программа кодирования : mkvmerge v7.9.0 ('Birds') 64bit
Библиотека кодирования : libebml v1.3.1 + libmatroska v1.4.2
Обложка : Yes
Attachments : small_cover.jpg / small_cover_land.jpg / cover.jpg / cover_land.jpg
Видео
Идентификатор : 1
Формат : HEVC
Формат/Информация : High Efficiency Video Coding
Коммерческое название : HDR10
Профиль формата : Main 10@L5.1@High
Идентификатор кодека : V_MPEGH/ISO/HEVC
Продолжительность : 1 ч. 39 м.
Битрейт : 22,7 Мбит/сек
Ширина : 3840 пикселей
Высота : 2076 пикселей
Соотношение сторон : 1,85:1
Режим частоты кадров : Постоянный
Частота кадров : 23,976 (24000/1001) кадра/сек
Цветовое пространство : YUV
Субдискретизация насыщенности : 4:2:0 (Type 2)
Битовая глубина : 10 бит
Бит/(Пиксели*Кадры) : 0.119
Размер потока : 15,7 Гбайт (96%)
Заголовок : The.Nutcracker.and.the.Four.Realms.2018.2160p.UHD.BDRip.x265.10bit.Master5
Библиотека кодирования : x265 3.0_RC+7-0614145ecaf2:[Windows][GCC 8.2.1][64 bit] 10bit
Настройки программы : cpuid=1111039 / frame-threads=16 / numa-pools=24,24,24,24 / wpp / no-pmode / no-pme / no-psnr / no-ssim / log-level=2 / input-csp=1 / input-res=3840x2076 / interlace=0 / total-frames=0 / level-idc=51 / high-tier=1 / uhd-bd=0 / ref=3 / no-allow-non-conformance / repeat-headers / annexb / aud / hrd / info / hash=0 / no-temporal-layers / no-open-gop / min-keyint=1 / keyint=24 / gop-lookahead=0 / bframes=4 / b-adapt=2 / b-pyramid / bframe-bias=0 / rc-lookahead=25 / lookahead-slices=4 / scenecut=40 / radl=0 / no-splice / no-intra-refresh / ctu=64 / min-cu-size=8 / no-rect / no-amp / max-tu-size=32 / tu-inter-depth=1 / tu-intra-depth=1 / limit-tu=0 / rdoq-level=0 / dynamic-rd=0.00 / no-ssim-rd / signhide / no-tskip / nr-intra=0 / nr-inter=0 / no-constrained-intra / strong-intra-smoothing / max-merge=2 / limit-refs=3 / no-limit-modes / me=1 / subme=2 / merange=57 / temporal-mvp / weightp / no-weightb / no-analyze-src-pics / deblock=0:0 / no-sao / no-sao-non-deblock / rd=3 / no-early-skip / rskip / no-fast-intra / no-tskip-fast / no-cu-lossless / no-b-intra / no-splitrd-skip / rdpenalty=0 / psy-rd=2.00 / psy-rdoq=0.00 / no-rd-refine / no-lossless / cbqpoffs=0 / crqpoffs=0 / rc=crf / crf=16.0 / qcomp=0.60 / qpstep=4 / stats-write=0 / stats-read=0 / vbv-maxrate=160000 / vbv-bufsize=160000 / vbv-init=0.9 / crf-max=0.0 / crf-min=0.0 / ipratio=1.40 / pbratio=1.30 / aq-mode=1 / aq-strength=1.00 / cutree / zone-count=0 / no-strict-cbr / qg-size=32 / no-rc-grain / qpmax=69 / qpmin=0 / no-const-vbv / sar=1 / overscan=0 / videoformat=5 / range=0 / colorprim=9 / transfer=16 / colormatrix=9 / chromaloc=1 / chromaloc-top=2 / chromaloc-bottom=2 / display-window=0 / master-display=G(13250,34500)B(7500,3000)R(34000,16000)WP(15635,16450)L(40000000,50) / max-cll=183,149 / min-luma=0 / max-luma=1023 / log2-max-poc-lsb=8 / vui-timing-info / vui-hrd-info / slices=1 / opt-qp-pps / opt-ref-list-length-pps / no-multi-pass-opt-rps / scenecut-bias=0.05 / no-opt-cu-delta-qp / no-aq-motion / hdr / hdr-opt / no-dhdr10-opt / no-idr-recovery-sei / analysis-reuse-level=5 / scale-factor=0 / refine-intra=0 / refine-inter=0 / refine-mv=0 / refine-ctu-distortion=0 / no-limit-sao / ctu-info=0 / no-lowpass-dct / refine-analysis-type=0 / copy-pic=1 / max-ausize-factor=1.0 / no-dynamic-refine / no-single-sei / no-hevc-aq / qp-adaptation-range=1.00
Default : Да
Forced : Нет
Цветовой диапазон : Limited
Основные цвета : BT.2020
Характеристики трансфера : PQ
Коэффициенты матрицы : BT.2020 non-constant
MasteringDisplay_ColorPrimaries : Display P3
MasteringDisplay_Luminance : min: 0.0050 cd/m2, max: 4000 cd/m2
MaxCLL : 183 cd/m2
MaxFALL : 149 cd/m2
Аудио #1
Идентификатор : 2
Формат : AC-3
Формат/Информация : Audio Coding 3
Коммерческое название : Dolby Digital
Идентификатор кодека : A_AC3
Продолжительность : 1 ч. 39 м.
Вид битрейта : Постоянный
Битрейт : 384 Кбит/сек
Каналы : 6 каналов
Channel layout : L R C LFE Ls Rs
Частота : 48,0 КГц
Частота кадров : 31,250 кадров/сек (1536 SPF)
Битовая глубина : 16 бит
Метод сжатия : С потерями
Размер потока : 273 Мбайт (2%)
Заголовок : iTunes
Язык : Russian
ServiceKind/String : Complete Main
Default : Да
Forced : Да
Аудио #2
Идентификатор : 3
Формат : AC-3
Формат/Информация : Audio Coding 3
Коммерческое название : Dolby Digital
Идентификатор кодека : A_AC3
Продолжительность : 1 ч. 39 м.
Вид битрейта : Постоянный
Битрейт : 640 Кбит/сек
Каналы : 6 каналов
Channel layout : L R C LFE Ls Rs
Частота : 48,0 КГц
Частота кадров : 31,250 кадров/сек (1536 SPF)
Битовая глубина : 16 бит
Метод сжатия : С потерями
Задержка видео : 15 мс.
Размер потока : 454 Мбайт (3%)
Язык : English
ServiceKind/String : Complete Main
Default : Нет
Forced : Нет
Текст #1
Идентификатор : 4
Формат : UTF-8
Идентификатор кодека : S_TEXT/UTF8
Идентификатор кодека/Информация : UTF-8 Plain Text
Продолжительность : 1 ч. 27 м.
Битрейт : 72 бит/сек
ElementCount : 1043
Размер потока : 46,6 Кбайт (0%)
Заголовок : rusFull
Язык : Russian
Default : Нет
Forced : Да
Текст #2
Идентификатор : 5
Формат : UTF-8
Идентификатор кодека : S_TEXT/UTF8
Идентификатор кодека/Информация : UTF-8 Plain Text
Продолжительность : 1 ч. 36 м.
Битрейт : 72 бит/сек
ElementCount : 1339
Размер потока : 51,4 Кбайт (0%)
Заголовок : rusSDH
Язык : Russian
Default : Нет
Forced : Нет
Текст #3
Идентификатор : 6
Формат : UTF-8
Идентификатор кодека : S_TEXT/UTF8
Идентификатор кодека/Информация : UTF-8 Plain Text
Продолжительность : 1 ч. 27 м.
Битрейт : 43 бит/сек
ElementCount : 1096
Размер потока : 27,7 Кбайт (0%)
Заголовок : engFull
Язык : English
Default : Нет
Forced : Нет
Текст #4
Идентификатор : 7
Формат : UTF-8
Идентификатор кодека : S_TEXT/UTF8
Идентификатор кодека/Информация : UTF-8 Plain Text
Продолжительность : 1 ч. 36 м.
Битрейт : 45 бит/сек
ElementCount : 1338
Размер потока : 32,4 Кбайт (0%)
Заголовок : engSDH
Язык : English
Default : Нет
Forced : Нет
Меню
00:00:00.000 : :Chapter 1
00:08:39.101 : :Chapter 2
00:16:47.256 : :Chapter 3
00:25:37.744 : :Chapter 4
00:34:20.892 : :Chapter 5
00:43:28.397 : :Chapter 6
00:48:31.992 : :Chapter 7
00:56:07.655 : :Chapter 8
00:59:09.546 : :Chapter 9
01:04:57.310 : :Chapter 10
01:11:49.722 : :Chapter 11
01:18:10.519 : :Chapter 12
01:22:04.002 : :Chapter 13
01:30:06.275 : :Chapter 14

Трейлер

-     - -

Theseus

Пост 01-Фев-2019 16:54

[Цитировать]

Щелкунчик и четыре королевства / The Nutcracker and the Four Realms- Год выхода: 2018
Страна: США
Жанр: фэнтези, приключения, семейный
Продолжительность: 01:39:16
Перевод : Профессиональный (полное дублирование) | iTunes
Субтитры: Русские, английские-Режиссер: Лассе Халльстрём, Джо Джонстон-В ролях: Маккензи Фой, Джейден Фовора-Найт, Кира Найтли, Хелен Миррен, Морган Фриман, Мисти Коуплэнд, Эухенио Дербес, Ричард Э. Грант, Мэттью Макфэдиен, Сергей Полунин-О фильме: Получив необычный подарок на Рождество, юная Клара отправляется в захватывающее путешествие по загадочным местам: Стране Снегов, Стране Цветов и Стране Сладостей. Но девушке нужно попасть и в четвертое королевство, где ей придется столкнуться с целой армией мышей во главе с невероятно опасным Мышиным Королем- -Качество: BDRip 1080p
Формат: MKV
Видео кодек: x.264
Аудио кодек: AC3
Видео: 1920x1036 (1.85:1), 23,976 fps, x264, 10,3 Mbps
Аудио #1: 48 kHz, AC3, 6 ch, 384.00 kbps | RUS
Аудио #2: 48 kHz, AC3, 6 ch, 448.00 kbps | ENG-

MI

General
Уникальный идентификатор : 202232145998067532122650059689420351379 (0x98247E9C1BF2D3558C4DFFA823DB6793)
Полное имя : The.Nutcracker.and.the.Four.RealmsBDRip1080p.mkv
Формат : Matroska
Версия формата : Version 4 / Version 2
Размер файла : 7.74 GiB
Продолжительность : 1 h 39 min
Общий поток : 11.2 Mb/s
Дата кодирования : UTC 2019-01-31 20:50:10
Программа кодирования : mkvmerge v9.5.0 ('Quiet Fire') 64bit
Библиотека кодирования : libebml v1.3.4 + libmatroska v1.4.5
Video
Идентификатор : 1
Формат : AVC
Формат/Информация : Advanced Video Codec
Профиль формата : High@L4.1
Настройки формата : CABAC / 4 Ref Frames
Параметр CABAC формата : Yes
Параметр RefFrames формата : 4 frames
Идентификатор кодека : V_MPEG4/ISO/AVC
Продолжительность : 1 h 39 min
Битрейт : 10.3 Mb/s
Ширина : 1 920 pixels
Высота : 1 036 pixels
Соотношение сторон : 1.85:1
Режим частоты кадров : Constant
Частота кадров : 23.976 (24000/1001) FPS
Цветовое пространство : YUV
Субдискретизация насыщенности : 4:2:0
Битовая глубина : 8 bits
Тип развёртки : Progressive
Бит/(Пиксели*Кадры) : 0.217
Размер потока : 7.16 GiB (93%)
Библиотека кодирования : x264 core 157 r2935 545de2f
Настройки программы : cabac=1 / ref=4 / deblock=1:-2:-2 / analyse=0x3:0x113 / me=umh / subme=11 / psy=1 / psy_rd=1.00:0.00 / mixed_ref=1 / me_range=32 / chroma_me=1 / trellis=2 / 8x8dct=1 / cqm=0 / deadzone=21,11 / fast_pskip=0 / chroma_qp_offset=-2 / threads=9 / lookahead_threads=2 / sliced_threads=0 / nr=0 / decimate=0 / interlaced=0 / bluray_compat=0 / constrained_intra=0 / bframes=14 / b_pyramid=2 / b_adapt=2 / b_bias=0 / direct=3 / weightb=1 / open_gop=0 / weightp=2 / keyint=240 / keyint_min=24 / scenecut=40 / intra_refresh=0 / rc_lookahead=120 / rc=2pass / mbtree=0 / bitrate=10330 / ratetol=1.0 / qcomp=0.70 / qpmin=0 / qpmax=69 / qpstep=4 / cplxblur=20.0 / qblur=0.5 / vbv_maxrate=50000 / vbv_bufsize=62500 / nal_hrd=none / filler=0 / ip_ratio=1.40 / pb_ratio=1.30 / aq=2:0.80
Язык : English
Default : Yes
Forced : No
Audio #1
Идентификатор : 2
Формат : AC-3
Формат/Информация : Audio Coding 3
Идентификатор кодека : A_AC3
Продолжительность : 1 h 39 min
Вид битрейта : Constant
Битрейт : 384 kb/s
Каналы : 6 channels
Расположение каналов : Front: L C R, Side: L R, LFE
Частота : 48.0 kHz
Частота кадров : 31.250 FPS (1536 SPF)
Битовая глубина : 16 bits
Метод сжатия : Lossy
Размер потока : 273 MiB (3%)
Язык : Russian
Default : Yes
Forced : No
Audio #2
Идентификатор : 3
Формат : AC-3
Формат/Информация : Audio Coding 3
Идентификатор кодека : A_AC3
Продолжительность : 1 h 39 min
Вид битрейта : Constant
Битрейт : 448 kb/s
Каналы : 6 channels
Расположение каналов : Front: L C R, Side: L R, LFE
Частота : 48.0 kHz
Частота кадров : 31.250 FPS (1536 SPF)
Битовая глубина : 16 bits
Метод сжатия : Lossy
Размер потока : 318 MiB (4%)
Язык : English
Default : No
Forced : No
Text #1
Идентификатор : 4
Формат : UTF-8
Идентификатор кодека : S_TEXT/UTF8
Идентификатор кодека/Информация : UTF-8 Plain Text
Продолжительность : 1 h 27 min
Битрейт : 72 b/s
ElementCount : 1043
Размер потока : 46.6 KiB (0%)
Заголовок : rusFull
Язык : Russian
Default : No
Forced : No
Text #2
Идентификатор : 5
Формат : UTF-8
Идентификатор кодека : S_TEXT/UTF8
Идентификатор кодека/Информация : UTF-8 Plain Text
Продолжительность : 1 h 36 min
Битрейт : 72 b/s
ElementCount : 1339
Размер потока : 51.4 KiB (0%)
Заголовок : rusSDH
Язык : Russian
Default : No
Forced : No
Text #3
Идентификатор : 6
Формат : UTF-8
Идентификатор кодека : S_TEXT/UTF8
Идентификатор кодека/Информация : UTF-8 Plain Text
Продолжительность : 1 h 27 min
Битрейт : 43 b/s
ElementCount : 1096
Размер потока : 27.7 KiB (0%)
Заголовок : engFull
Язык : English
Default : No
Forced : No
Text #4
Идентификатор : 7
Формат : UTF-8
Идентификатор кодека : S_TEXT/UTF8
Идентификатор кодека/Информация : UTF-8 Plain Text
Продолжительность : 1 h 36 min
Битрейт : 45 b/s
ElementCount : 1338
Размер потока : 32.4 KiB (0%)
Заголовок : engSDH
Язык : English
Default : No
Forced : No
Menu
00:00:00.000 : :Chapter 01
00:08:39.101 : :Chapter 02
00:16:47.089 : :Chapter 03
00:25:37.744 : :Chapter 04
00:34:20.892 : :Chapter 05
00:43:28.397 : :Chapter 06
00:48:31.992 : :Chapter 07
00:56:07.655 : :Chapter 08
00:59:09.546 : :Chapter 09
01:04:57.310 : :Chapter 10
01:11:49.722 : :Chapter 11
01:18:10.519 : :Chapter 12
01:22:04.002 : :Chapter 13
01:30:06.651 : :Chapter 14
01:39:14.073 : :Chapter 15

Трейлер

-     - -
 

Текущее время: Сегодня 16:01

Часовой пояс: GMT + 3