Сегодня идет свободное скачивание без начисления Download

Результатов поиска: 500

Автор Сообщение

sergej644

Пост 28-Янв-2019 21:12

[Цитировать]

-Axel Rudi Pell - Love Ballads--
Год издания: 2002
Страна: Germany
Жанр: Melodic Heavy Metal
Продолжительность: 01:17:54-Лейбл издания: Universal Music Company
Страна-выпуска диска: Russia
Номер по каталогу: Лицензия с РАО №0047/А9-02
Тип альбома: Compilation (пиратка)-Формат: APE
Битрейт аудио: Lossless
Тип рипа: image +.cue
Наличие сканов в содержимом раздачи: да
-

Трэклист


01. Come Back To Me (6:53)
02. Ashes From The Oath (9:37)
03. Broken Heart (5:11)
04. When A Blind Man Cries (4:39)
05. Silent Angel (5:17)
06. Innocent Child (5:29)
07. The Line (7:40)
08. Oceans Of Time (7:47)
09. Tearin' Out My Heart (6:05)
10. The Clown Is Dead (12:13)
11. The Eyes Of The Lost (7:04)
-

Лог создания рипа

Код:
Отчёт EAC об извлечении, выполненном 6. ноября 2009, 12:07 для диска:
Axel Rudi Pell / Love Ballads
Дисковод: PIONEER DVD-RW  DVR-216D   Adapter: 3  ID: 1
Режим чтения: Достоверный (C2: нет, Точный поток: да, Отключение кэша: да)
Коррекция смещения при чтении: 96
Способность читать области Lead-in и Lead-out : Нет
Выходной формат: Внутренние WAV-операции
                     44.100 Гц; 16 бит; стерео
Другие параметры:
    Заполнение пропущенных сэмплов тишиной : Да
    Удаление блоков с тишиной в начале и конце : Нет
    Встроенный Win32-интерфейс для Win NT/2000
Характеристики диапазона извлечения и сообщения об ошибках
Выбранный диапазон
     Имя файла H:\Мои раздачи\Axel Rudi Pell - Love Ballads 2002\ape\Axel Rudi Pell - Love Ballads.wav
     Подозрительная позиция 0:29:09
     Подозрительная позиция 1:13:26
     Пиковый уровень 100.0 %
     Качество диапазона 99.8 %
     CRC 8C13B673
     Копирование завершено
Были ошибки
Конец отчёта

Индексная карта (non-compilant .cue)

Код:
REM GENRE "Hard Rock"
REM DATE 2002
REM DISCID 9912420B
REM COMMENT "ExactAudioCopy v0.95b4"
PERFORMER "Axel Rudi Pell"
TITLE "Love Ballads"
FILE "Axel Rudi Pell - Love Ballads.wav" WAVE
  TRACK 01 AUDIO
    TITLE "Come Back To Me"
    PERFORMER "Axel Rudi Pell"
    FLAGS DCP
    INDEX 01 00:00:00
  TRACK 02 AUDIO
    TITLE "Ashes From The Oath"
    PERFORMER "Axel Rudi Pell"
    INDEX 01 06:53:20
  TRACK 03 AUDIO
    TITLE "Broken Heart"
    PERFORMER "Axel Rudi Pell"
    FLAGS DCP
    INDEX 01 16:30:14
  TRACK 04 AUDIO
    TITLE "When A Blind Man Cries"
    PERFORMER "Axel Rudi Pell"
    INDEX 01 21:41:34
  TRACK 05 AUDIO
    TITLE "Silent Angel"
    PERFORMER "Axel Rudi Pell"
    INDEX 01 26:19:74
  TRACK 06 AUDIO
    TITLE "Innocent Child"
    PERFORMER "Axel Rudi Pell"
    INDEX 01 31:37:03
  TRACK 07 AUDIO
    TITLE "The Line"
    PERFORMER "Axel Rudi Pell"
    INDEX 01 37:05:45
  TRACK 08 AUDIO
    TITLE "Oceans Of Time"
    PERFORMER "Axel Rudi Pell"
    INDEX 01 44:45:44
  TRACK 09 AUDIO
    TITLE "Tearin' Out My Heart"
    PERFORMER "Axel Rudi Pell"
    INDEX 01 52:32:74
  TRACK 10 AUDIO
    TITLE "The Clown Is Dead"
    PERFORMER "Axel Rudi Pell"
    FLAGS DCP
    INDEX 01 58:38:02
  TRACK 11 AUDIO
    TITLE "The Eyes Of The Lost"
    PERFORMER "Axel Rudi Pell"
    INDEX 01 70:50:46
-

для ознакомления:


--

sergej644

Пост 28-Янв-2019 19:40

[Цитировать]

-Michael Schenker Fest - Resurrection--
Год издания: 2018
Страна: Germany
Жанр: Heavy Metal
Продолжительность: 00:52:16-Лейбл издания: Nuclear Blast
Страна-выпуска диска: EU
Номер по каталогу: 27361 41732-Формат: FLAC
Битрейт аудио: Lossless
Тип рипа: image +.cue
Наличие сканов в содержимом раздачи: да
-

Трэклист


01. Heart And Soul (4:21)
02. Warrior (5:22)
03. Take Me To The Church (4:46)
04. Night Moods (4:30)
05. The Girl With The Stars In Her Eyes (3:49)
06. Everest (3:42)
07. Messin' Around (4:34)
08. Time Knows When Itґs Time (4:23)
09. Anchors Away (4:26)
10. Salvation (3:38)
11. Livin' A Life Worth Livin' (3:52)
12. The Last Supper (4:52)
-

Лог создания рипа

Код:
Exact Audio Copy V1.3 from 2. September 2016
Отчёт EAC об извлечении, выполненном 19. марта 2018, 19:00
Michael Schenker Fest / Resurrection
Дисковод: HL-DT-STDVDRAM GU40N   Adapter: 1  ID: 0
Режим чтения                 : Достоверность
Использование точного потока : Да
Отключение кэша аудио        : Да
Использование указателей C2  : Нет
Коррекция смещения при чтении                     : 103
Способность читать области Lead-in и Lead-out     : Нет
Заполнение пропущенных сэмплов тишиной            : Да
Удаление блоков с тишиной в начале и конце        : Нет
При вычислениях CRC использовались нулевые сэмплы : Да
Интерфейс                                         : Встроенный Win32-интерфейс для Win NT/2000
Выходной формат          : Пользовательский кодировщик
Выбранный битрейт        : 1024 kBit/s
Качество                 : Высокий
Добавление ID3-тега      : Нет
Утилита сжатия           : C:\Program Files (x86)\Exact Audio Copy\Flac\flac.exe
Дополнительные параметры :  -V -8 -T "Date=%year%" -T "Genre=%genre%" %source%
TOC извлечённого CD
     Трек |   Старт  | Длительность | Начальный сектор | Конечный сектор
    ---------------------------------------------------------------------
       1  |  0:00.00 |    4:20.67   |           0      |      19566
       2  |  4:20.67 |    5:21.64   |       19567      |      43705
       3  |  9:42.56 |    4:46.31   |       43706      |      65186
       4  | 14:29.12 |    4:29.62   |       65187      |      85423
       5  | 18:58.74 |    3:48.62   |       85424      |     102585
       6  | 22:47.61 |    3:42.21   |      102586      |     119256
       7  | 26:30.07 |    4:34.05   |      119257      |     139811
       8  | 31:04.12 |    4:23.04   |      139812      |     159540
       9  | 35:27.16 |    4:26.13   |      159541      |     179503
      10  | 39:53.29 |    3:38.24   |      179504      |     195877
      11  | 43:31.53 |    3:51.64   |      195878      |     213266
      12  | 47:23.42 |    4:52.07   |      213267      |     235173
Характеристики диапазона извлечения и сообщения об ошибках
Выбранный диапазон
     Имя файла C:\Users\ Desktop\Michael Schenker Fest - Resurrection 2018\Michael Schenker Fest - Resurrection.wav
     Пиковый уровень 92.2 %
     Скорость извлечения 2.0 X
     Качество диапазона 100.0 %
     CRC теста 6C0373D0
     CRC копии 6C0373D0
     Копирование... OK
Ошибок не произошло
AccurateRip: сводка
Трек  1  отсутствует в базе данных
Трек  2  отсутствует в базе данных
Трек  3  отсутствует в базе данных
Трек  4  отсутствует в базе данных
Трек  5  отсутствует в базе данных
Трек  6  отсутствует в базе данных
Трек  7  отсутствует в базе данных
Трек  8  отсутствует в базе данных
Трек  9  отсутствует в базе данных
Трек 10  отсутствует в базе данных
Трек 11  отсутствует в базе данных
Трек 12  отсутствует в базе данных
Ни одного трека нет в базе AccurateRip
Конец отчёта
---- CUETools DB Plugin V2.1.6
[CTDB TOCID: nQpJIroEco5KoFp8sTSXpNbVKBg-] found
Submit result: nQpJIroEco5KoFp8sTSXpNbVKBg- has been confirmed
Track | CTDB Status
  1   | (43/43) Accurately ripped
  2   | (43/43) Accurately ripped
  3   | (43/43) Accurately ripped
  4   | (43/43) Accurately ripped
  5   | (43/43) Accurately ripped
  6   | (43/43) Accurately ripped
  7   | (43/43) Accurately ripped
  8   | (43/43) Accurately ripped
  9   | (43/43) Accurately ripped
10   | (43/43) Accurately ripped
11   | (43/43) Accurately ripped
12   | (43/43) Accurately ripped

Индексная карта (non-compilant .cue)

Код:
REM GENRE "Hard Rock"
REM DATE 2018
REM DISCID AC0C3F0C
REM COMMENT "ExactAudioCopy v1.3"
PERFORMER "Michael Schenker Fest"
TITLE "Resurrection"
REM COMPOSER ""
FILE "Michael Schenker Fest - Resurrection.flac" WAVE
  TRACK 01 AUDIO
    TITLE "Heart And Soul"
    PERFORMER "Michael Schenker Fest"
    REM COMPOSER ""
    INDEX 01 00:00:00
  TRACK 02 AUDIO
    TITLE "Warrior"
    PERFORMER "Michael Schenker Fest"
    REM COMPOSER ""
    INDEX 01 04:20:67
  TRACK 03 AUDIO
    TITLE "Take Me To The Church"
    PERFORMER "Michael Schenker Fest"
    REM COMPOSER ""
    INDEX 01 09:42:56
  TRACK 04 AUDIO
    TITLE "Night Moods"
    PERFORMER "Michael Schenker Fest"
    REM COMPOSER ""
    INDEX 01 14:29:12
  TRACK 05 AUDIO
    TITLE "The Girl With The Stars In Her Eyes"
    PERFORMER "Michael Schenker Fest"
    REM COMPOSER ""
    INDEX 01 18:58:74
  TRACK 06 AUDIO
    TITLE "Everest"
    PERFORMER "Michael Schenker Fest"
    REM COMPOSER ""
    INDEX 01 22:47:61
  TRACK 07 AUDIO
    TITLE "Messin' Around"
    PERFORMER "Michael Schenker Fest"
    REM COMPOSER ""
    INDEX 01 26:30:07
  TRACK 08 AUDIO
    TITLE "Time Knows When Itґs Time"
    PERFORMER "Michael Schenker Fest"
    REM COMPOSER ""
    INDEX 01 31:04:12
  TRACK 09 AUDIO
    TITLE "Anchors Away"
    PERFORMER "Michael Schenker Fest"
    REM COMPOSER ""
    INDEX 01 35:27:16
  TRACK 10 AUDIO
    TITLE "Salvation"
    PERFORMER "Michael Schenker Fest"
    REM COMPOSER ""
    INDEX 01 39:53:29
  TRACK 11 AUDIO
    TITLE "Livin' A Life Worth Livin'"
    PERFORMER "Michael Schenker Fest"
    REM COMPOSER ""
    INDEX 01 43:31:53
  TRACK 12 AUDIO
    TITLE "The Last Supper"
    PERFORMER "Michael Schenker Fest"
    REM COMPOSER ""
    INDEX 01 47:23:42
-

для ознакомления:

--

sergej644

Пост 28-Янв-2019 01:10

[Цитировать]

XP1971 писал(а):
Послушал о посмотрел на ссылке на ютуб, понравились дочки самураев, думаю, как это перевести в формат МП3, чтобы (ну да, я древний как мамонт и музыка у меня в авто тоже ;-) ) записать на диск в машину
спишемся завтра. Все очень легко делается. Сейчас спать....

XP1971

Пост 27-Янв-2019 23:14

[Цитировать]

Послушал о посмотрел на ссылке на ютуб, понравились дочки самураев, думаю, как это перевести в формат МП3, чтобы (ну да, я древний как мамонт и музыка у меня в авто тоже ;-) ) записать на диск в машину

sergej644

Пост 27-Янв-2019 21:00

[Цитировать]

-Lovebites - Clockwork Immortality (Japanese Ltd. Ed.)--
Год издания: 2018
Страна: Japan
Жанр: Power Metal
Продолжительность: 00:53:28-Лейбл издания: Victor Entertainment
Страна-выпуска диска: Japan
Номер по каталогу: VIZL-1477-Формат: FLAC
Битрейт аудио: Lossless
Тип рипа: image +.cue
Наличие сканов в содержимом раздачи: да
-

Трэклист


01. Addicted (5:25)
02. Pledge Of The Saviour (5:18)
03. Rising (5:45)
04. Empty Daydream (5:16)
05. Mastermind 01 (4:19)
06. M.D.O. (4:16)
07. Journey Of The Otherside (4:47)
08. The Final Collision (5:45)
09. We The United (5:29)
10. Epilogue (7:07)
-

Лог создания рипа

Код:
Exact Audio Copy V1.3 from 2. September 2016
EAC extraction logfile from 28. December 2018, 18:49
Lovebites / Clockwork Immortality (Japan)
Used drive  : ATAPI   iHAS124   F   Adapter: 2  ID: 0
Read mode               : Secure
Utilize accurate stream : Yes
Defeat audio cache      : Yes
Make use of C2 pointers : No
Read offset correction                      : 6
Overread into Lead-In and Lead-Out          : No
Fill up missing offset samples with silence : Yes
Delete leading and trailing silent blocks   : No
Null samples used in CRC calculations       : Yes
Used interface                              : Installed external ASPI interface
Used output format              : User Defined Encoder
Selected bitrate                : 1024 kBit/s
Quality                         : High
Add ID3 tag                     : No
Command line compressor         : C:\Program Files\FLAC\flac.exe
Additional command line options : -V -8 -T "Date=%year%" -T "Genre=%genre%" -T"COMMENT=Ripped by  Ilijan " -8 -V %source%
TOC of the extracted CD
     Track |   Start  |  Length  | Start sector | End sector
    ---------------------------------------------------------
        1  |  0:00.00 |  5:25.21 |         0    |    24395
        2  |  5:25.21 |  5:18.02 |     24396    |    48247
        3  | 10:43.23 |  5:44.74 |     48248    |    74121
        4  | 16:28.22 |  5:16.00 |     74122    |    97821
        5  | 21:44.22 |  4:19.00 |     97822    |   117246
        6  | 26:03.22 |  4:16.00 |    117247    |   136446
        7  | 30:19.22 |  4:46.46 |    136447    |   157942
        8  | 35:05.68 |  5:45.30 |    157943    |   183847
        9  | 40:51.23 |  5:29.02 |    183848    |   208524
       10  | 46:20.25 |  7:07.15 |    208525    |   240564
Range status and errors
Selected range
     Filename D:\Vknish+g.y.m. \Lovebites - Clockwork Immortality (Japan).wav
     Peak level 100.0 %
     Extraction speed 8.1 X
     Range quality 100.0 %
     Test CRC D4B6CBEA
     Copy CRC D4B6CBEA
     Copy OK
No errors occurred
AccurateRip summary
Track  1  not present in database
Track  2  not present in database
Track  3  not present in database
Track  4  not present in database
Track  5  not present in database
Track  6  not present in database
Track  7  not present in database
Track  8  not present in database
Track  9  not present in database
Track 10  not present in database
None of the tracks are present in the AccurateRip database
End of status report

Индексная карта (non-compilant .cue)

Код:
REM GENRE "Power Metal"
REM DATE 2018
REM DISCID 810C870A
REM COMMENT "ExactAudioCopy v1.3"
PERFORMER "Lovebites"
TITLE "Clockwork Immortality (Japan)"
FILE "Lovebites - Clockwork Immortality (Japan).flac" WAVE
  TRACK 01 AUDIO
    TITLE "Addicted"
    PERFORMER "Lovebites"
    INDEX 01 00:00:00
  TRACK 02 AUDIO
    TITLE "Pledge Of The Saviour"
    PERFORMER "Lovebites"
    INDEX 01 05:25:21
  TRACK 03 AUDIO
    TITLE "Rising"
    PERFORMER "Lovebites"
    INDEX 01 10:43:23
  TRACK 04 AUDIO
    TITLE "Empty Daydream"
    PERFORMER "Lovebites"
    INDEX 01 16:28:22
  TRACK 05 AUDIO
    TITLE "Mastermind 01"
    PERFORMER "Lovebites"
    INDEX 00 21:42:71
    INDEX 01 21:44:22
  TRACK 06 AUDIO
    TITLE "M.D.O."
    PERFORMER "Lovebites"
    INDEX 00 26:01:01
    INDEX 01 26:03:22
  TRACK 07 AUDIO
    TITLE "Journey Of The Otherside"
    PERFORMER "Lovebites"
    INDEX 01 30:19:22
  TRACK 08 AUDIO
    TITLE "The Final Collision"
    PERFORMER "Lovebites"
    INDEX 00 35:03:65
    INDEX 01 35:05:68
  TRACK 09 AUDIO
    TITLE "We The United"
    PERFORMER "Lovebites"
    INDEX 01 40:51:23
  TRACK 10 AUDIO
    TITLE "Epilogue"
    PERFORMER "Lovebites"
    INDEX 00 46:16:42
    INDEX 01 46:20:25
-

для ознакомления:

--

sergej644

Пост 27-Янв-2019 21:02

[Цитировать]

-Powerwolf - Metallum Nostrum (Tribute Album)--
Год издания: 2019
Страна: Germany
Жанр: Power Metal
Продолжительность: 00:52:05-Лейбл издания: Napalm Records
Страна-выпуска диска: Germany
Номер по каталогу: NPR 604 DP-Формат: FLAC
Битрейт аудио: Lossless
Тип рипа: image +.cue
Наличие сканов в содержимом раздачи: да
-

Трэклист


01. Touch of evil (5:40)
02. Conquistadores (4:45)
03. Edge of thorns (6:00)
04. Power and glory (4:55)
05. Out in the fields (4:16)
06. Shot in the dark (4:11)
07. Gods of war arise (5:53)
08. The evil that men do (4:31)
09. Headless cross (6:10)
10. Nightcrawler (5:42)
-

Лог создания рипа

Код:
Exact Audio Copy V1.3 from 2. September 2016
Отчёт EAC об извлечении, выполненном 17. января 2019, 14:35
Powerwolf / Metallum Nostrum
Дисковод: HL-DT-STDVDRAM GU40N   Adapter: 0  ID: 1
Режим чтения                 : Достоверность
Использование точного потока : Да
Отключение кэша аудио        : Да
Использование указателей C2  : Нет
Коррекция смещения при чтении                     : 103
Способность читать области Lead-in и Lead-out     : Нет
Заполнение пропущенных сэмплов тишиной            : Да
Удаление блоков с тишиной в начале и конце        : Нет
При вычислениях CRC использовались нулевые сэмплы : Да
Интерфейс                                         : Установленный внешний ASPI-интерфейс
Выходной формат          : Пользовательский кодировщик
Выбранный битрейт        : 1024 kBit/s
Качество                 : Высокий
Добавление ID3-тега      : Нет
Утилита сжатия           : C:\Program Files (x86)\Exact Audio Copy\Flac\flac.exe
Дополнительные параметры :  -V -8 -T "Date=%year%" -T "Genre=%genre%" %source%
TOC извлечённого CD
     Трек |   Старт  | Длительность | Начальный сектор | Конечный сектор
    ---------------------------------------------------------------------
       1  |  0:00.00 |    5:40.31   |           0      |      25530
       2  |  5:40.31 |    4:45.23   |       25531      |      46928
       3  | 10:25.54 |    6:00.03   |       46929      |      73931
       4  | 16:25.57 |    4:54.66   |       73932      |      96047
       5  | 21:20.48 |    4:16.30   |       96048      |     115277
       6  | 25:37.03 |    4:11.34   |      115278      |     134136
       7  | 29:48.37 |    5:53.37   |      134137      |     160648
       8  | 35:41.74 |    4:31.05   |      160649      |     180978
       9  | 40:13.04 |    6:09.53   |      180979      |     208706
      10  | 46:22.57 |    5:42.26   |      208707      |     234382
Характеристики диапазона извлечения и сообщения об ошибках
Выбранный диапазон
     Имя файла C:\Users\workutagin\Desktop\POWERWOLF - METALLUM NOSTRUM 2019\Powerwolf - Metallum Nostrum.wav
     Пиковый уровень 98.7 %
     Скорость извлечения 2.0 X
     Качество диапазона 99.9 %
     CRC теста DF1BE389
     CRC копии DF1BE389
     Копирование... OK
Ошибок не произошло
AccurateRip: сводка
Трек  1  : извлечено точно (доверие 47)  [960FC241]  (AR v2)
Трек  2  : извлечено точно (доверие 47)  [F2E8B63F]  (AR v2)
Трек  3  : извлечено точно (доверие 47)  [E90148E9]  (AR v2)
Трек  4  : извлечено точно (доверие 47)  [623B55D4]  (AR v2)
Трек  5  : извлечено точно (доверие 47)  [04C5287B]  (AR v2)
Трек  6  : извлечено точно (доверие 47)  [8B893D2E]  (AR v2)
Трек  7  : извлечено точно (доверие 47)  [2EB40364]  (AR v2)
Трек  8  : извлечено точно (доверие 47)  [3BFC5B19]  (AR v2)
Трек  9  : извлечено точно (доверие 47)  [7838E5D8]  (AR v2)
Трек 10  : извлечено точно (доверие 47)  [65E1DD90]  (AR v2)
Все треки извлечены точно
Конец отчёта

Индексная карта (non-compilant .cue)

Код:
REM GENRE "Heavy Metal"
REM DATE 2019
REM DISCID 8D0C350A
REM COMMENT "ExactAudioCopy v1.3"
PERFORMER "Powerwolf"
TITLE "Metallum Nostrum"
REM COMPOSER ""
FILE "Powerwolf - Metallum Nostrum.flac" WAVE
  TRACK 01 AUDIO
    TITLE "Touch of evil"
    PERFORMER "Powerwolf"
    REM COMPOSER ""
    FLAGS DCP
    INDEX 01 00:00:00
  TRACK 02 AUDIO
    TITLE "Conquistadores"
    PERFORMER "Powerwolf"
    REM COMPOSER ""
    FLAGS DCP
    INDEX 01 05:40:31
  TRACK 03 AUDIO
    TITLE "Edge of thorns"
    PERFORMER "Powerwolf"
    REM COMPOSER ""
    FLAGS DCP
    INDEX 01 10:25:54
  TRACK 04 AUDIO
    TITLE " Power and glory"
    PERFORMER "Powerwolf"
    REM COMPOSER ""
    FLAGS DCP
    INDEX 01 16:25:57
  TRACK 05 AUDIO
    TITLE "Out in the fields"
    PERFORMER "Powerwolf"
    REM COMPOSER ""
    FLAGS DCP
    INDEX 01 21:20:48
  TRACK 06 AUDIO
    TITLE "Shot in the dark"
    PERFORMER "Powerwolf"
    REM COMPOSER ""
    FLAGS DCP
    INDEX 01 25:37:03
  TRACK 07 AUDIO
    TITLE "Gods of war arise"
    PERFORMER "Powerwolf"
    REM COMPOSER ""
    FLAGS DCP
    INDEX 01 29:48:37
  TRACK 08 AUDIO
    TITLE "The evil that men do"
    PERFORMER "Powerwolf"
    REM COMPOSER ""
    FLAGS DCP
    INDEX 01 35:41:74
  TRACK 09 AUDIO
    TITLE "Headless cross"
    PERFORMER "Powerwolf"
    REM COMPOSER ""
    FLAGS DCP
    INDEX 01 40:13:04
  TRACK 10 AUDIO
    TITLE "Nightcrawler"
    PERFORMER "Powerwolf"
    REM COMPOSER ""
    FLAGS DCP
    INDEX 01 46:22:57
--

sergej644

Пост 27-Янв-2019 20:56

[Цитировать]

-Lovebites - Awakening From Abyss--
Год издания: 2017
Страна: Japan
Жанр: Power Metal
Продолжительность: 01:00:58-Лейбл издания: Victor Entertainment
Страна-выпуска диска: Japan
Номер по каталогу: VIZL-1256-Формат: FLAC
Битрейт аудио: Lossless
Тип рипа: image +.cue
Наличие сканов в содержимом раздачи: да
-

Трэклист


01. The Awakening (2:05)
02. The Hammer Of Wrath (4:41)
03. Warning Shot (4:03)
04. Shadowmaker (5:42)
05. Scream For Me (6:12)
06. Liar (6:03)
07. Burden Of Time (4:46)
08. The Apocalypse (4:59)
09. Inspire (5:20)
10. Don't Bite The Dust (4:13)
11. Edge Of The World (6:44)
12. Bravehearted (Awakened Version) (6:11)
-

Лог создания рипа

Код:
Exact Audio Copy V1.3 from 2. September 2016
EAC extraction logfile from 21. November 2017, 11:51
Lovebites / Awakening From Abyss (Japan)
Used drive  : ATAPI   iHAS122   W   Adapter: 2  ID: 0
Read mode               : Secure
Utilize accurate stream : Yes
Defeat audio cache      : Yes
Make use of C2 pointers : No
Read offset correction                      : 48
Overread into Lead-In and Lead-Out          : No
Fill up missing offset samples with silence : Yes
Delete leading and trailing silent blocks   : No
Null samples used in CRC calculations       : Yes
Used interface                              : Installed external ASPI interface
Used output format              : User Defined Encoder
Selected bitrate                : 1024 kBit/s
Quality                         : High
Add ID3 tag                     : No
Command line compressor         : C:\Program Files\FLAC\flac.exe
Additional command line options : -V -8 -T "Date=%year%" -T "Genre=%genre%" -T"COMMENT=Ripped by  Ilijan " -8 -V %source%
TOC of the extracted CD
     Track |   Start  |  Length  | Start sector | End sector
    ---------------------------------------------------------
        1  |  0:00.00 |  2:05.01 |         0    |     9375
        2  |  2:05.01 |  4:41.21 |      9376    |    30471
        3  |  6:46.22 |  4:03.01 |     30472    |    48697
        4  | 10:49.23 |  5:42.00 |     48698    |    74347
        5  | 16:31.23 |  6:12.00 |     74348    |   102247
        6  | 22:43.23 |  6:03.00 |    102248    |   129472
        7  | 28:46.23 |  4:46.00 |    129473    |   150922
        8  | 33:32.23 |  4:59.00 |    150923    |   173347
        9  | 38:31.23 |  5:20.13 |    173348    |   197360
       10  | 43:51.36 |  4:12.40 |    197361    |   216300
       11  | 48:04.01 |  6:43.50 |    216301    |   246575
       12  | 54:47.51 |  6:10.46 |    246576    |   274371
Range status and errors
Selected range
     Filename D:\Vknish + Devastator \Lovebites - Awakening From Abyss (Japan).wav
     Peak level 98.8 %
     Extraction speed 3.9 X
     Range quality 99.9 %
     Test CRC 62C576C3
     Copy CRC 62C576C3
     Copy OK
No errors occurred
AccurateRip summary
Track  1  not present in database
Track  2  not present in database
Track  3  not present in database
Track  4  not present in database
Track  5  not present in database
Track  6  not present in database
Track  7  not present in database
Track  8  not present in database
Track  9  not present in database
Track 10  not present in database
Track 11  not present in database
Track 12  not present in database
None of the tracks are present in the AccurateRip database
End of status report

Индексная карта (non-compilant .cue)

Код:
REM GENRE "Power Metal"
REM DATE 2017
REM DISCID A60E4A0C
REM COMMENT "ExactAudioCopy v1.3"
PERFORMER "Lovebites"
TITLE "Awakening From Abyss (Japan)"
FILE "Lovebites - Awakening From Abyss (Japan).flac" WAVE
  TRACK 01 AUDIO
    TITLE "The Awakening"
    PERFORMER "Lovebites"
    INDEX 01 00:00:00
  TRACK 02 AUDIO
    TITLE "The Hammer Of Wrath"
    PERFORMER "Lovebites"
    INDEX 01 02:05:01
  TRACK 03 AUDIO
    TITLE "Warning Shot"
    PERFORMER "Lovebites"
    INDEX 00 06:44:46
    INDEX 01 06:46:22
  TRACK 04 AUDIO
    TITLE "Shadowmaker"
    PERFORMER "Lovebites"
    INDEX 00 10:47:23
    INDEX 01 10:49:23
  TRACK 05 AUDIO
    TITLE "Scream For Me"
    PERFORMER "Lovebites"
    INDEX 00 16:30:03
    INDEX 01 16:31:23
  TRACK 06 AUDIO
    TITLE "Liar"
    PERFORMER "Lovebites"
    INDEX 00 22:39:42
    INDEX 01 22:43:23
  TRACK 07 AUDIO
    TITLE "Burden Of Time"
    PERFORMER "Lovebites"
    INDEX 00 28:43:61
    INDEX 01 28:46:23
  TRACK 08 AUDIO
    TITLE "The Apocalypse"
    PERFORMER "Lovebites"
    INDEX 00 33:31:02
    INDEX 01 33:32:23
  TRACK 09 AUDIO
    TITLE "Inspire"
    PERFORMER "Lovebites"
    INDEX 01 38:31:23
  TRACK 10 AUDIO
    TITLE "Don't Bite The Dust"
    PERFORMER "Lovebites"
    INDEX 01 43:51:36
  TRACK 11 AUDIO
    TITLE "Edge Of The World"
    PERFORMER "Lovebites"
    INDEX 00 48:02:58
    INDEX 01 48:04:01
  TRACK 12 AUDIO
    TITLE "Bravehearted (Awakened Version)"
    PERFORMER "Lovebites"
    INDEX 01 54:47:51
-

для ознакомления:

--

sergej644

Пост 27-Янв-2019 20:50

[Цитировать]

-Them - Manor Of The Se7en Gables--
Год издания: 2018
Страна: USA | EU
Жанр: Power Metal
Продолжительность: 00:55:00-Лейбл издания: Steamhammer / SPV GmbH
Страна-выпуска диска: Germany
Номер по каталогу: SPV 286602 CD-Формат: FLAC
Битрейт аудио: Lossless
Тип рипа: image +.cue
Наличие сканов в содержимом раздачи: да
-

Трэклист


01. Residuum (3:24)
02. Circuitous (4:24)
03. Refuge in the Manor (4:36)
04. Witchfinder (5:18)
05. A Scullery Maid (1:55)
06. Ravna (5:50)
07. As the Sage Burns (5:37)
08. The Secret Stairs (4:49)
09. Peine Forte Et Dure (1:45)
10. Maleficium (4:51)
11. Seven Gables to Ash (3:58)
12. Punishment by Fire (8:33)
-

Лог создания рипа

Код:
Exact Audio Copy V1.3 from 2. September 2016
EAC extraction logfile from 18. December 2018, 10:46
Them / Manor of the Se7en Gables
Used drive  : ATAPI   iHAS122   W   Adapter: 2  ID: 0
Read mode               : Secure
Utilize accurate stream : Yes
Defeat audio cache      : Yes
Make use of C2 pointers : No
Read offset correction                      : 48
Overread into Lead-In and Lead-Out          : No
Fill up missing offset samples with silence : Yes
Delete leading and trailing silent blocks   : No
Null samples used in CRC calculations       : Yes
Used interface                              : Installed external ASPI interface
Used output format              : User Defined Encoder
Selected bitrate                : 1024 kBit/s
Quality                         : High
Add ID3 tag                     : No
Command line compressor         : C:\Program Files\FLAC\flac.exe
Additional command line options : -V -8 -T "Date=%year%" -T "Genre=%genre%" -T"COMMENT=Ripped by  Ilijan " -8 -V %source%
TOC of the extracted CD
     Track |   Start  |  Length  | Start sector | End sector
    ---------------------------------------------------------
        1  |  0:00.00 |  3:23.58 |         0    |    15282
        2  |  3:23.58 |  4:24.01 |     15283    |    35083
        3  |  7:47.59 |  4:36.01 |     35084    |    55784
        4  | 12:23.60 |  5:18.20 |     55785    |    79654
        5  | 17:42.05 |  1:54.42 |     79655    |    88246
        6  | 19:36.47 |  5:50.13 |     88247    |   114509
        7  | 25:26.60 |  5:36.53 |    114510    |   139762
        8  | 31:03.38 |  4:48.74 |    139763    |   161436
        9  | 35:52.37 |  1:45.32 |    161437    |   169343
       10  | 37:37.69 |  4:51.25 |    169344    |   191193
       11  | 42:29.19 |  3:58.05 |    191194    |   209048
       12  | 46:27.24 |  8:32.51 |    209049    |   247499
Range status and errors
Selected range
     Filename D:\Vknish \Them - Manor of the Se7en Gables.wav
     Peak level 99.0 %
     Extraction speed 3.5 X
     Range quality 100.0 %
     Test CRC 64646CE1
     Copy CRC 64646CE1
     Copy OK
No errors occurred
AccurateRip summary
Track  1  not present in database
Track  2  not present in database
Track  3  not present in database
Track  4  not present in database
Track  5  not present in database
Track  6  not present in database
Track  7  not present in database
Track  8  not present in database
Track  9  not present in database
Track 10  not present in database
Track 11  not present in database
Track 12  not present in database
None of the tracks are present in the AccurateRip database
End of status report

Индексная карта (non-compilant .cue)

Код:
REM GENRE "Heavy/Power Metal"
REM DATE 2018
REM DISCID B10CE40C
REM COMMENT "ExactAudioCopy v1.3"
PERFORMER "Them"
TITLE "Manor of the Se7en Gables"
FILE "Them - Manor of the Se7en Gables.flac" WAVE
  TRACK 01 AUDIO
    TITLE "Residuum"
    PERFORMER "Them"
    INDEX 01 00:00:00
  TRACK 02 AUDIO
    TITLE "Circuitous"
    PERFORMER "Them"
    INDEX 01 03:23:58
  TRACK 03 AUDIO
    TITLE "Refuge in the Manor"
    PERFORMER "Them"
    INDEX 01 07:47:59
  TRACK 04 AUDIO
    TITLE "Witchfinder"
    PERFORMER "Them"
    INDEX 01 12:23:60
  TRACK 05 AUDIO
    TITLE "A Scullery Maid"
    PERFORMER "Them"
    INDEX 01 17:42:05
  TRACK 06 AUDIO
    TITLE "Ravna"
    PERFORMER "Them"
    INDEX 01 19:36:47
  TRACK 07 AUDIO
    TITLE "As the Sage Burns"
    PERFORMER "Them"
    INDEX 01 25:26:60
  TRACK 08 AUDIO
    TITLE "The Secret Stairs"
    PERFORMER "Them"
    INDEX 01 31:03:38
  TRACK 09 AUDIO
    TITLE "Peine Forte Et Dure"
    PERFORMER "Them"
    INDEX 01 35:52:37
  TRACK 10 AUDIO
    TITLE "Maleficium"
    PERFORMER "Them"
    INDEX 01 37:37:69
  TRACK 11 AUDIO
    TITLE "Seven Gables to Ash"
    PERFORMER "Them"
    INDEX 01 42:29:19
  TRACK 12 AUDIO
    TITLE "Punishment by Fire"
    PERFORMER "Them"
    INDEX 01 46:27:24
-

для ознакомления:


--

sergej644

Пост 27-Янв-2019 14:35

[Цитировать]

-Starbreaker - Dysphoria (Japanese Edition) - 2019--
Год издания: 2018
Страна: Norway
Жанр: Melodic Heavy Metal
Продолжительность: 00:49:32-Лейбл издания: King Record Co., Ltd.
Страна-выпуска диска: Japan
Номер по каталогу: KICP-1965-Формат: FLAC
Битрейт аудио: Lossless
Тип рипа: image +.cue
Наличие сканов в содержимом раздачи: да
-

Трэклист


01. Pure Evil (3:54)
02. Wild Butterflies (4:47)
03. Last December (3:58)
04. How Many More Goodbyes (5:00)
05. Beautiful One (4:17)
06. Dysphoria (4:31)
07. My Heart Belongs To You (4:44)
08. Fire Away (4:11)
09. Bright Star Blind Me (5:47)
10. Starbreaker (4:06)
11. Beautiful One (Acoustic Version) (Bonus Track) (4:18)
-

Лог создания рипа

Код:
Exact Audio Copy V1.3 from 2. September 2016
EAC extraction logfile from 17. January 2019, 18:44
Starbreaker / Dysphoria (Japan)
Used drive  : ATAPI   iHAS124   F   Adapter: 2  ID: 0
Read mode               : Secure
Utilize accurate stream : Yes
Defeat audio cache      : Yes
Make use of C2 pointers : No
Read offset correction                      : 6
Overread into Lead-In and Lead-Out          : No
Fill up missing offset samples with silence : Yes
Delete leading and trailing silent blocks   : No
Null samples used in CRC calculations       : Yes
Used interface                              : Installed external ASPI interface
Used output format              : User Defined Encoder
Selected bitrate                : 1024 kBit/s
Quality                         : High
Add ID3 tag                     : No
Command line compressor         : C:\Program Files\FLAC\flac.exe
Additional command line options : -V -8 -T "Date=%year%" -T "Genre=%genre%" -T"COMMENT=Ripped by  Ilijan [MeTaLMaDNeSS.TeaM]" -8 -V %source%
TOC of the extracted CD
     Track |   Start  |  Length  | Start sector | End sector
    ---------------------------------------------------------
        1  |  0:00.00 |  3:54.06 |         0    |    17555
        2  |  3:54.06 |  4:47.19 |     17556    |    39099
        3  |  8:41.25 |  3:58.21 |     39100    |    56970
        4  | 12:39.46 |  4:59.38 |     56971    |    79433
        5  | 17:39.09 |  4:17.14 |     79434    |    98722
        6  | 21:56.23 |  4:30.53 |     98723    |   119025
        7  | 26:27.01 |  4:43.72 |    119026    |   140322
        8  | 31:10.73 |  4:11.30 |    140323    |   159177
        9  | 35:22.28 |  5:46.44 |    159178    |   185171
       10  | 41:08.72 |  4:05.68 |    185172    |   203614
       11  | 45:14.65 |  4:17.43 |    203615    |   222932
Range status and errors
Selected range
     Filename D:\Starbreaker - Dysphoria (Japan).wav
     Peak level 98.8 %
     Extraction speed 8.0 X
     Range quality 100.0 %
     Test CRC CFDC668A
     Copy CRC CFDC668A
     Copy OK
No errors occurred
AccurateRip summary
Track  1  not present in database
Track  2  not present in database
Track  3  not present in database
Track  4  not present in database
Track  5  not present in database
Track  6  not present in database
Track  7  not present in database
Track  8  not present in database
Track  9  not present in database
Track 10  not present in database
Track 11  not present in database
None of the tracks are present in the AccurateRip database
End of status report
---- CUETools DB Plugin V2.1.6
[CTDB TOCID: KW_TY5iBJ6RlCve6ZfTXf4lF3UE-] found
Submit result: KW_TY5iBJ6RlCve6ZfTXf4lF3UE- has been confirmed
Track | CTDB Status
  1   | (2/2) Accurately ripped
  2   | (2/2) Accurately ripped
  3   | (2/2) Accurately ripped
  4   | (2/2) Accurately ripped
  5   | (2/2) Accurately ripped
  6   | (2/2) Accurately ripped
  7   | (2/2) Accurately ripped
  8   | (2/2) Accurately ripped
  9   | (2/2) Accurately ripped
10   | (2/2) Accurately ripped
11   | (2/2) Accurately ripped

Индексная карта (non-compilant .cue)

Код:
REM GENRE "Melodic Heavy Metal"
REM DATE 2018
REM DISCID 890B9C0B
REM COMMENT "ExactAudioCopy v1.3"
PERFORMER "Starbreaker"
TITLE "Dysphoria (Japan)"
FILE "Starbreaker - Dysphoria (Japan).flac" WAVE
  TRACK 01 AUDIO
    TITLE "Pure Evil"
    PERFORMER "Starbreaker"
    INDEX 01 00:00:00
  TRACK 02 AUDIO
    TITLE "Wild Butterflies"
    PERFORMER "Starbreaker"
    INDEX 01 03:54:06
  TRACK 03 AUDIO
    TITLE "Last December"
    PERFORMER "Starbreaker"
    INDEX 01 08:41:25
  TRACK 04 AUDIO
    TITLE "How Many More Goodbyes"
    PERFORMER "Starbreaker"
    INDEX 01 12:39:46
  TRACK 05 AUDIO
    TITLE "Beautiful One"
    PERFORMER "Starbreaker"
    INDEX 01 17:39:09
  TRACK 06 AUDIO
    TITLE "Dysphoria"
    PERFORMER "Starbreaker"
    INDEX 01 21:56:23
  TRACK 07 AUDIO
    TITLE "My Heart Belongs To You"
    PERFORMER "Starbreaker"
    INDEX 01 26:27:01
  TRACK 08 AUDIO
    TITLE "Fire Away"
    PERFORMER "Starbreaker"
    INDEX 01 31:10:73
  TRACK 09 AUDIO
    TITLE "Bright Star Blind Me"
    PERFORMER "Starbreaker"
    INDEX 01 35:22:28
  TRACK 10 AUDIO
    TITLE "Starbreaker"
    PERFORMER "Starbreaker"
    INDEX 01 41:08:72
  TRACK 11 AUDIO
    TITLE "Beautiful One (Acoustic Version) (Bonus Track)"
    PERFORMER "Starbreaker"
    INDEX 01 45:14:65
-

для ознакомления:

--

sergej644

Пост 27-Янв-2019 14:33

[Цитировать]

-Architects Of Chaoz - [R]evolution--
Год издания: 2018
Страна: Germany
Жанр: Heavy Metal
Продолжительность: 01:02:47-Лейбл издания: Metalville
Страна-выпуска диска: EU
Номер по каталогу: MV0179-Формат: FLAC
Битрейт аудио: Lossless
Тип рипа: tracks +.cue
Наличие сканов в содержимом раздачи: да
-

Трэклист


01. Rise (5:16)
02. Dead Again (4:50)
03. Hitman (4:22)
04. A Moment Of Clarity (6:58)
05. All Play Dead (4:06)
06. Century Of Cancer (4:43)
07. Into The Fire (4:40)
08. Hollow Years (4:30)
09. Pressure (4:05)
10. Farewell (4:35)
11. No Way Out (4:33)
12. Bloodrain Falls (4:12)
13. The Pulse Of The Sun (5:58)
-

Лог создания рипа

Код:
Exact Audio Copy V1.3 from 2. September 2016
EAC extraction logfile from 12. September 2018, 9:02
Architects of Chaoz / [R]evolution
Used drive  : ASUS    SDRW-08U5S-U   Adapter: 1  ID: 1
Read mode               : Secure
Utilize accurate stream : Yes
Defeat audio cache      : Yes
Make use of C2 pointers : No
Read offset correction                      : 6
Overread into Lead-In and Lead-Out          : No
Fill up missing offset samples with silence : Yes
Delete leading and trailing silent blocks   : No
Null samples used in CRC calculations       : Yes
Used interface                              : Native Win32 interface for Win NT & 2000
Gap handling                                : Appended to previous track
Used output format              : User Defined Encoder
Selected bitrate                : 128 kBit/s
Quality                         : High
Add ID3 tag                     : No
Command line compressor         : C:\Program Files (x86)\Exact Audio Copy\Flac\flac.exe
Additional command line options : -8 -V -T "ARTIST=%artist%" -T "TITLE=%title%" -T "ALBUM=%albumtitle%" -T "DATE=%year%" -T "TRACKNUMBER=%tracknr%" -T "TOTALTRACKS=%numtracks%" -T "GENRE=%genre%" -T "ALBUMARTIST=%albumartist%" -T "ALBUM ARTIST=%albumartist%" -T "COMMENT=EAC Secure Mode, Test & Copy, AccurateRip, FLAC -8" %source%
TOC of the extracted CD
     Track |   Start  |  Length  | Start sector | End sector
    ---------------------------------------------------------
        1  |  0:00.00 |  5:16.18 |         0    |    23717
        2  |  5:16.18 |  4:50.18 |     23718    |    45485
        3  | 10:06.36 |  4:21.73 |     45486    |    65133
        4  | 14:28.34 |  6:58.05 |     65134    |    96488
        5  | 21:26.39 |  4:05.73 |     96489    |   114936
        6  | 25:32.37 |  4:42.71 |    114937    |   136157
        7  | 30:15.33 |  4:40.02 |    136158    |   157159
        8  | 34:55.35 |  4:29.53 |    157160    |   177387
        9  | 39:25.13 |  4:04.53 |    177388    |   195740
       10  | 43:29.66 |  4:35.01 |    195741    |   216366
       11  | 48:04.67 |  4:32.41 |    216367    |   236807
       12  | 52:37.33 |  4:11.49 |    236808    |   255681
       13  | 56:49.07 |  5:58.22 |    255682    |   282553
Track  1
     Filename E:\Uploads\Architects Of Chaoz - [R]evolution (2018) [FLAC]\01 - Rise.wav
     Pre-gap length  0:00:02.00
     Peak level 98.7 %
     Extraction speed 2.5 X
     Track quality 100.0 %
     Test CRC FC473E89
     Copy CRC FC473E89
     Cannot be verified as accurate (confidence 1)  [62CDC981], AccurateRip returned [0B3892D0]  (AR v2)
     Copy OK
Track  2
     Filename E:\Uploads\Architects Of Chaoz - [R]evolution (2018) [FLAC]\02 - Dead Again.wav
     Peak level 98.8 %
     Extraction speed 2.7 X
     Track quality 100.0 %
     Test CRC DE793C66
     Copy CRC DE793C66
     Cannot be verified as accurate (confidence 1)  [5ACDC2E8], AccurateRip returned [D9700E20]  (AR v2)
     Copy OK
Track  3
     Filename E:\Uploads\Architects Of Chaoz - [R]evolution (2018) [FLAC]\03 - Hitman.wav
     Peak level 99.0 %
     Extraction speed 2.9 X
     Track quality 100.0 %
     Test CRC 2767334E
     Copy CRC 2767334E
     Cannot be verified as accurate (confidence 1)  [C139DFB7], AccurateRip returned [FC52E131]  (AR v2)
     Copy OK
Track  4
     Filename E:\Uploads\Architects Of Chaoz - [R]evolution (2018) [FLAC]\04 - A Moment Of Clarity.wav
     Peak level 98.8 %
     Extraction speed 4.2 X
     Track quality 100.0 %
     Test CRC 93764529
     Copy CRC 93764529
     Cannot be verified as accurate (confidence 1)  [0E7E14BD], AccurateRip returned [6EDB1DBC]  (AR v2)
     Copy OK
Track  5
     Filename E:\Uploads\Architects Of Chaoz - [R]evolution (2018) [FLAC]\05 - All Play Dead.wav
     Peak level 98.8 %
     Extraction speed 4.2 X
     Track quality 100.0 %
     Test CRC F53C77EF
     Copy CRC F53C77EF
     Cannot be verified as accurate (confidence 1)  [CE0343BB], AccurateRip returned [51DDF096]  (AR v2)
     Copy OK
Track  6
     Filename E:\Uploads\Architects Of Chaoz - [R]evolution (2018) [FLAC]\06 - Century Of Cancer.wav
     Peak level 98.9 %
     Extraction speed 4.5 X
     Track quality 100.0 %
     Test CRC 8FADC284
     Copy CRC 8FADC284
     Cannot be verified as accurate (confidence 1)  [4B88FECE], AccurateRip returned [644B7324]  (AR v2)
     Copy OK
Track  7
     Filename E:\Uploads\Architects Of Chaoz - [R]evolution (2018) [FLAC]\07 - Into The Fire.wav
     Peak level 98.8 %
     Extraction speed 4.7 X
     Track quality 100.0 %
     Test CRC 0E6822AC
     Copy CRC 0E6822AC
     Cannot be verified as accurate (confidence 1)  [8ACB2F17], AccurateRip returned [55EFC0D4]  (AR v2)
     Copy OK
Track  8
     Filename E:\Uploads\Architects Of Chaoz - [R]evolution (2018) [FLAC]\08 - Hollow Years.wav
     Peak level 98.8 %
     Extraction speed 4.9 X
     Track quality 100.0 %
     Test CRC FBBB725F
     Copy CRC FBBB725F
     Cannot be verified as accurate (confidence 1)  [CF3F163E], AccurateRip returned [A748C050]  (AR v2)
     Copy OK
Track  9
     Filename E:\Uploads\Architects Of Chaoz - [R]evolution (2018) [FLAC]\09 - Pressure.wav
     Peak level 98.8 %
     Extraction speed 4.2 X
     Track quality 99.9 %
     Test CRC A5382242
     Copy CRC A5382242
     Cannot be verified as accurate (confidence 1)  [7AC011DC], AccurateRip returned [2B09364E]  (AR v2)
     Copy OK
Track 10
     Filename E:\Uploads\Architects Of Chaoz - [R]evolution (2018) [FLAC]\10 - Farewell.wav
     Peak level 98.7 %
     Extraction speed 5.3 X
     Track quality 100.0 %
     Test CRC 4A05D3E6
     Copy CRC 4A05D3E6
     Cannot be verified as accurate (confidence 1)  [9FEC10DE], AccurateRip returned [29FF3C73]  (AR v2)
     Copy OK
Track 11
     Filename E:\Uploads\Architects Of Chaoz - [R]evolution (2018) [FLAC]\11 - No Way Out.wav
     Peak level 98.7 %
     Extraction speed 4.6 X
     Track quality 99.9 %
     Test CRC 4D8F15F9
     Copy CRC 4D8F15F9
     Cannot be verified as accurate (confidence 1)  [1BD95F5F], AccurateRip returned [69E6AAF3]  (AR v2)
     Copy OK
Track 12
     Filename E:\Uploads\Architects Of Chaoz - [R]evolution (2018) [FLAC]\12 - Bloodrain Falls.wav
     Peak level 98.7 %
     Extraction speed 4.6 X
     Track quality 99.9 %
     Test CRC 647703AE
     Copy CRC 647703AE
     Cannot be verified as accurate (confidence 1)  [F8E24F72], AccurateRip returned [89C0825E]  (AR v2)
     Copy OK
Track 13
     Filename E:\Uploads\Architects Of Chaoz - [R]evolution (2018) [FLAC]\13 - The Pulse Of The Sun.wav
     Peak level 98.9 %
     Extraction speed 6.0 X
     Track quality 100.0 %
     Test CRC B55D3EFB
     Copy CRC B55D3EFB
     Cannot be verified as accurate (confidence 1)  [CFEBC18D], AccurateRip returned [22497B6F]  (AR v2)
     Copy OK
No tracks could be verified as accurate
You may have a different pressing from the one(s) in the database
No errors occurred
End of status report
---- CUETools DB Plugin V2.1.6
[CTDB TOCID: hHBPX.y9IadiJNZHMJYtxY1mG50-] found
Submit result: hHBPX.y9IadiJNZHMJYtxY1mG50- has been confirmed
Track | CTDB Status
  1   | (5/5) Accurately ripped
  2   | (5/5) Accurately ripped
  3   | (5/5) Accurately ripped
  4   | (5/5) Accurately ripped
  5   | (5/5) Accurately ripped
  6   | (5/5) Accurately ripped
  7   | (5/5) Accurately ripped
  8   | (5/5) Accurately ripped
  9   | (5/5) Accurately ripped
10   | (5/5) Accurately ripped
11   | (5/5) Accurately ripped
12   | (5/5) Accurately ripped
13   | (5/5) Accurately ripped

Индексная карта (non-compilant .cue)

Код:
REM GENRE "Heavy Metal"
REM DATE 2018
REM DISCID BD0EB70D
REM COMMENT "ExactAudioCopy v1.3"
PERFORMER "Architects of Chaoz"
TITLE "[R]evolution"
REM COMPOSER ""
FILE "01 - Rise.wav" WAVE
  TRACK 01 AUDIO
    TITLE "Rise"
    PERFORMER "Architects of Chaoz"
    REM COMPOSER ""
    INDEX 01 00:00:00
FILE "02 - Dead Again.wav" WAVE
  TRACK 02 AUDIO
    TITLE "Dead Again"
    PERFORMER "Architects of Chaoz"
    REM COMPOSER ""
    INDEX 01 00:00:00
FILE "03 - Hitman.wav" WAVE
  TRACK 03 AUDIO
    TITLE "Hitman"
    PERFORMER "Architects of Chaoz"
    REM COMPOSER ""
    INDEX 01 00:00:00
FILE "04 - A Moment Of Clarity.wav" WAVE
  TRACK 04 AUDIO
    TITLE "A Moment Of Clarity"
    PERFORMER "Architects of Chaoz"
    REM COMPOSER ""
    INDEX 01 00:00:00
FILE "05 - All Play Dead.wav" WAVE
  TRACK 05 AUDIO
    TITLE "All Play Dead"
    PERFORMER "Architects of Chaoz"
    REM COMPOSER ""
    INDEX 01 00:00:00
FILE "06 - Century Of Cancer.wav" WAVE
  TRACK 06 AUDIO
    TITLE "Century Of Cancer"
    PERFORMER "Architects of Chaoz"
    REM COMPOSER ""
    INDEX 01 00:00:00
FILE "07 - Into The Fire.wav" WAVE
  TRACK 07 AUDIO
    TITLE "Into The Fire"
    PERFORMER "Architects of Chaoz"
    REM COMPOSER ""
    INDEX 01 00:00:00
FILE "08 - Hollow Years.wav" WAVE
  TRACK 08 AUDIO
    TITLE "Hollow Years"
    PERFORMER "Architects of Chaoz"
    REM COMPOSER ""
    INDEX 01 00:00:00
FILE "09 - Pressure.wav" WAVE
  TRACK 09 AUDIO
    TITLE "Pressure"
    PERFORMER "Architects of Chaoz"
    REM COMPOSER ""
    INDEX 01 00:00:00
FILE "10 - Farewell.wav" WAVE
  TRACK 10 AUDIO
    TITLE "Farewell"
    PERFORMER "Architects of Chaoz"
    REM COMPOSER ""
    INDEX 01 00:00:00
FILE "11 - No Way Out.wav" WAVE
  TRACK 11 AUDIO
    TITLE "No Way Out"
    PERFORMER "Architects of Chaoz"
    REM COMPOSER ""
    INDEX 01 00:00:00
FILE "12 - Bloodrain Falls.wav" WAVE
  TRACK 12 AUDIO
    TITLE "Bloodrain Falls"
    PERFORMER "Architects of Chaoz"
    REM COMPOSER ""
    INDEX 01 00:00:00
FILE "13 - The Pulse Of The Sun.wav" WAVE
  TRACK 13 AUDIO
    TITLE "The Pulse Of The Sun"
    PERFORMER "Architects of Chaoz"
    REM COMPOSER ""
    INDEX 01 00:00:00
-

для ознакомления:

--

sergej644

Пост 24-Авг-2018 10:32

[Цитировать]

-Cryonic Temple - Deliverance (Japanese Edition)--
Год издания: 2018
Страна: Sweden
Жанр: Power Metal
Продолжительность: 01:07:17-Лейбл издания: King Records
Страна-выпуска диска: Japan
Номер по каталогу: KICP 1920-Формат: FLAC
Битрейт аудио: Lossless
Тип рипа: image +.cue
Наличие сканов в содержимом раздачи: да
-

Трэклист


01. Intro: The Morning After The Longest Day (2:29)
02. Rise Eternally Beyond (5:07)
03. Through The Storm (4:52)
04. Knights Of The Sky (5:27)
05. Deliverance (4:21)
06. Loneliest Man In Space (5:04)
07. Pain And Pleasure (3:40)
08. Temple Of Cryonics (5:12)
09. Starchild (4:23)
10. End Of Days (4:06)
11. Swansong Of The Last Emperor (4:29)
12. Under Attack (4:09)
13. Blood And Shame (3:46)
14. Insomnia (5:39)
15. Walking With Fire (Bonus Track) (4:30)
-

Лог создания рипа

Код:
Exact Audio Copy V1.3 from 2. September 2016
EAC extraction logfile from 20. August 2018, 19:10
Cryonic Temple / Deliverance (Japan)
Used drive  : ATAPI   iHAS122   W   Adapter: 2  ID: 0
Read mode               : Secure
Utilize accurate stream : Yes
Defeat audio cache      : Yes
Make use of C2 pointers : No
Read offset correction                      : 48
Overread into Lead-In and Lead-Out          : No
Fill up missing offset samples with silence : Yes
Delete leading and trailing silent blocks   : No
Null samples used in CRC calculations       : Yes
Used interface                              : Installed external ASPI interface
Used output format              : User Defined Encoder
Selected bitrate                : 1024 kBit/s
Quality                         : High
Add ID3 tag                     : No
Command line compressor         : C:\Program Files\FLAC\flac.exe
Additional command line options : -V -8 -T "Date=%year%" -T "Genre=%genre%" -T"COMMENT=Ripped by  Ilijan [MeTaLMaDNeSS.TeaM]" -8 -V %source%
TOC of the extracted CD
     Track |   Start  |  Length  | Start sector | End sector
    ---------------------------------------------------------
        1  |  0:00.00 |  2:28.42 |         0    |    11141
        2  |  2:28.42 |  5:07.20 |     11142    |    34186
        3  |  7:35.62 |  4:52.21 |     34187    |    56107
        4  | 12:28.08 |  5:27.36 |     56108    |    80668
        5  | 17:55.44 |  4:21.05 |     80669    |   100248
        6  | 22:16.49 |  5:04.15 |    100249    |   123063
        7  | 27:20.64 |  3:40.36 |    123064    |   139599
        8  | 31:01.25 |  5:12.05 |    139600    |   163004
        9  | 36:13.30 |  4:23.24 |    163005    |   182753
       10  | 40:36.54 |  4:06.20 |    182754    |   201223
       11  | 44:42.74 |  4:29.36 |    201224    |   221434
       12  | 49:12.35 |  4:09.21 |    221435    |   240130
       13  | 53:21.56 |  3:45.59 |    240131    |   257064
       14  | 57:07.40 |  5:39.00 |    257065    |   282489
       15  | 62:46.40 |  4:30.10 |    282490    |   302749
Range status and errors
Selected range
     Filename D:\Vknish+Devastator+ungern666+deminbek=Swolo4 (Upload On Rutracker, DIE!!!)\Cryonic Temple - Deliverance (Japan).wav
     Peak level 100.0 %
     Extraction speed 4.5 X
     Range quality 100.0 %
     Test CRC 6A8177AF
     Copy CRC 6A8177AF
     Copy OK
No errors occurred
AccurateRip summary
Track  1  not present in database
Track  2  not present in database
Track  3  not present in database
Track  4  not present in database
Track  5  not present in database
Track  6  not present in database
Track  7  not present in database
Track  8  not present in database
Track  9  not present in database
Track 10  not present in database
Track 11  not present in database
Track 12  not present in database
Track 13  not present in database
Track 14  not present in database
Track 15  not present in database
None of the tracks are present in the AccurateRip database
End of status report

Индексная карта (non-compilant .cue)

Код:
REM GENRE "Power Metal"
REM DATE 2018
REM DISCID DB0FC40F
REM COMMENT "ExactAudioCopy v1.3"
PERFORMER "Cryonic Temple"
TITLE "Deliverance (Japan)"
FILE "Cryonic Temple - Deliverance (Japan).flac" WAVE
  TRACK 01 AUDIO
    TITLE "Intro: The Morning After The Longest Day"
    PERFORMER "Cryonic Temple"
    INDEX 01 00:00:00
  TRACK 02 AUDIO
    TITLE "Rise Eternally Beyond"
    PERFORMER "Cryonic Temple"
    INDEX 01 02:28:42
  TRACK 03 AUDIO
    TITLE "Through The Storm"
    PERFORMER "Cryonic Temple"
    INDEX 00 07:33:62
    INDEX 01 07:35:62
  TRACK 04 AUDIO
    TITLE "Knights Of The Sky"
    PERFORMER "Cryonic Temple"
    INDEX 00 12:26:08
    INDEX 01 12:28:08
  TRACK 05 AUDIO
    TITLE "Deliverance"
    PERFORMER "Cryonic Temple"
    INDEX 01 17:55:44
  TRACK 06 AUDIO
    TITLE "Loneliest Man In Space"
    PERFORMER "Cryonic Temple"
    INDEX 00 22:14:49
    INDEX 01 22:16:49
  TRACK 07 AUDIO
    TITLE "Pain And Pleasure"
    PERFORMER "Cryonic Temple"
    INDEX 01 27:20:64
  TRACK 08 AUDIO
    TITLE "Temple Of Cryonics"
    PERFORMER "Cryonic Temple"
    INDEX 01 31:01:25
  TRACK 09 AUDIO
    TITLE "Starchild"
    PERFORMER "Cryonic Temple"
    INDEX 00 36:12:30
    INDEX 01 36:13:30
  TRACK 10 AUDIO
    TITLE "End Of Days"
    PERFORMER "Cryonic Temple"
    INDEX 00 40:34:54
    INDEX 01 40:36:54
  TRACK 11 AUDIO
    TITLE "Swansong Of The Last Emperor"
    PERFORMER "Cryonic Temple"
    INDEX 00 44:40:74
    INDEX 01 44:42:74
  TRACK 12 AUDIO
    TITLE "Under Attack"
    PERFORMER "Cryonic Temple"
    INDEX 01 49:12:35
  TRACK 13 AUDIO
    TITLE "Blood And Shame"
    PERFORMER "Cryonic Temple"
    INDEX 00 53:20:56
    INDEX 01 53:21:56
  TRACK 14 AUDIO
    TITLE "Insomnia"
    PERFORMER "Cryonic Temple"
    INDEX 00 57:05:40
    INDEX 01 57:07:40
  TRACK 15 AUDIO
    TITLE "Walking With Fire (Bonus Track)"
    PERFORMER "Cryonic Temple"
    INDEX 00 62:44:40
    INDEX 01 62:46:40
-

для ознакомления:

--

sergej644

Пост 24-Авг-2018 10:29

[Цитировать]

-Derdian - DNA (Japanese Edition)--
Год издания: 2018
Страна: Italy
Жанр: Power Metal
Продолжительность: 01:12:34-Лейбл издания: King Records
Страна-выпуска диска: Japan
Номер по каталогу: KICP 1927-Формат: FLAC
Битрейт аудио: Lossless
Тип рипа: image +.cue
Наличие сканов в содержимом раздачи: да
-

Трэклист


01. Abduction (1:12)
02. DNA (5:29)
03. False Flag Operation (5:02)
04. Never Born (5:45)
05. Hail To The Masters (4:29)
06. Red And White (5:06)
07. Elohim (5:28)
08. Nothing Will Remain (5:33)
09. Fire From The Dust (6:23)
10. Destiny Never Awaits (5:43)
11. Frame Of The End (5:02)
12. Part Of This World (6:07)
13. Ya Nada Cambiara (5:33)
14. Never Born (Japanese Version) (Bonus Track) (5:41)
-

Лог создания рипа

Код:
Exact Audio Copy V1.3 from 2. September 2016
EAC extraction logfile from 20. August 2018, 19:55
Derdian / DNA (Japan)
Used drive  : ATAPI   iHAS122   W   Adapter: 2  ID: 0
Read mode               : Secure
Utilize accurate stream : Yes
Defeat audio cache      : Yes
Make use of C2 pointers : No
Read offset correction                      : 48
Overread into Lead-In and Lead-Out          : No
Fill up missing offset samples with silence : Yes
Delete leading and trailing silent blocks   : No
Null samples used in CRC calculations       : Yes
Used interface                              : Installed external ASPI interface
Used output format              : User Defined Encoder
Selected bitrate                : 1024 kBit/s
Quality                         : High
Add ID3 tag                     : No
Command line compressor         : C:\Program Files\FLAC\flac.exe
Additional command line options : -V -8 -T "Date=%year%" -T "Genre=%genre%" -T"COMMENT=Ripped by  Ilijan [MeTaLMaDNeSS.TeaM]" -8 -V %source%
TOC of the extracted CD
     Track |   Start  |  Length  | Start sector | End sector
    ---------------------------------------------------------
        1  |  0:00.00 |  1:12.29 |         0    |     5428
        2  |  1:12.29 |  5:29.13 |      5429    |    30116
        3  |  6:41.42 |  5:02.26 |     30117    |    52792
        4  | 11:43.68 |  5:45.02 |     52793    |    78669
        5  | 17:28.70 |  4:28.46 |     78670    |    98815
        6  | 21:57.41 |  5:05.74 |     98816    |   121764
        7  | 27:03.40 |  5:28.18 |    121765    |   146382
        8  | 32:31.58 |  5:33.03 |    146383    |   171360
        9  | 38:04.61 |  6:22.43 |    171361    |   200053
       10  | 44:27.29 |  5:42.54 |    200054    |   225757
       11  | 50:10.08 |  5:02.07 |    225758    |   248414
       12  | 55:12.15 |  6:07.07 |    248415    |   275946
       13  | 61:19.22 |  5:33.32 |    275947    |   300953
       14  | 66:52.54 |  5:40.69 |    300954    |   326522
Range status and errors
Selected range
     Filename D:\Vknish+Devastator+ungern666+deminbek=Swolo4 (Upload On Rutracker, DIE!!!)\Derdian - DNA (Japan).wav
     Peak level 98.1 %
     Extraction speed 4.6 X
     Range quality 100.0 %
     Test CRC B1994A43
     Copy CRC B1994A43
     Copy OK
No errors occurred
AccurateRip summary
Track  1  not present in database
Track  2  not present in database
Track  3  not present in database
Track  4  not present in database
Track  5  not present in database
Track  6  not present in database
Track  7  not present in database
Track  8  not present in database
Track  9  not present in database
Track 10  not present in database
Track 11  not present in database
Track 12  not present in database
Track 13  not present in database
Track 14  not present in database
None of the tracks are present in the AccurateRip database
End of status report

Индексная карта (non-compilant .cue)

Код:
REM GENRE "Power Metal"
REM DATE 2018
REM DISCID A911010E
REM COMMENT "ExactAudioCopy v1.3"
PERFORMER "Derdian"
TITLE "DNA (Japan)"
FILE "Derdian - DNA (Japan).flac" WAVE
  TRACK 01 AUDIO
    TITLE "Abduction"
    PERFORMER "Derdian"
    INDEX 01 00:00:00
  TRACK 02 AUDIO
    TITLE "DNA"
    PERFORMER "Derdian"
    INDEX 01 01:12:29
  TRACK 03 AUDIO
    TITLE "False Flag Operation"
    PERFORMER "Derdian"
    INDEX 00 06:39:42
    INDEX 01 06:41:42
  TRACK 04 AUDIO
    TITLE "Never Born"
    PERFORMER "Derdian"
    INDEX 00 11:41:68
    INDEX 01 11:43:68
  TRACK 05 AUDIO
    TITLE "Hail To The Masters"
    PERFORMER "Derdian"
    INDEX 00 17:26:70
    INDEX 01 17:28:70
  TRACK 06 AUDIO
    TITLE "Red And White"
    PERFORMER "Derdian"
    INDEX 00 21:55:41
    INDEX 01 21:57:41
  TRACK 07 AUDIO
    TITLE "Elohim"
    PERFORMER "Derdian"
    INDEX 00 27:01:40
    INDEX 01 27:03:40
  TRACK 08 AUDIO
    TITLE "Nothing Will Remain"
    PERFORMER "Derdian"
    INDEX 00 32:29:58
    INDEX 01 32:31:58
  TRACK 09 AUDIO
    TITLE "Fire From The Dust"
    PERFORMER "Derdian"
    INDEX 00 38:02:61
    INDEX 01 38:04:61
  TRACK 10 AUDIO
    TITLE "Destiny Never Awaits"
    PERFORMER "Derdian"
    INDEX 00 44:25:29
    INDEX 01 44:27:29
  TRACK 11 AUDIO
    TITLE "Frame Of The End"
    PERFORMER "Derdian"
    INDEX 00 50:08:08
    INDEX 01 50:10:08
  TRACK 12 AUDIO
    TITLE "Part Of This World"
    PERFORMER "Derdian"
    INDEX 00 55:10:15
    INDEX 01 55:12:15
  TRACK 13 AUDIO
    TITLE "Ya Nada Cambiara"
    PERFORMER "Derdian"
    INDEX 00 61:17:22
    INDEX 01 61:19:22
  TRACK 14 AUDIO
    TITLE "Never Born (Japanese Version) (Bonus Track)"
    PERFORMER "Derdian"
    INDEX 00 66:50:54
    INDEX 01 66:52:54
-

для ознакомления:

--

sergej644

Пост 24-Авг-2018 10:27

[Цитировать]

-Mob Rules - Beast Reborn (Limited Edition) (2CD)--
Год издания: 2018
Страна: Germany
Жанр: Melodic Power Metal
Продолжительность: 01:08:54-Лейбл издания: Steamhammer
Страна-выпуска диска: Germany
Номер по каталогу: SPV 286769 BOX-Формат: FLAC
Битрейт аудио: Lossless
Тип рипа: image +.cue
Наличие сканов в содержимом раздачи: да
-

Трэклист

CD 1 | 00:57:32


01. Beast Reborn (1:00)
02. Ghost Of A Chance (4:45)
03. Shores Ahead (5:30)
04. Sinister Light (4:24)
05. Traveller In Time (6:14)
06. Children's Crusade (4:45)
07. War Of Currents (8:17)
08. The Explorer (5:01)
09. Revenant Of The Sea (7:15)
10. Way Back Home (4:32)
11. My Sobriety Mind (For Those Who Left) (5:49)

CD 2 | 00:11:22


01. Sacred Heart (6:00)
02. Lord Of Madness (Re-Recorded) (5:22)
-

Лог создания рипа

CD 1

Код:
Exact Audio Copy V1.3 from 2. September 2016
EAC extraction logfile from 23. August 2018, 12:09
Mob Rules / Beast Reborn
Used drive  : HP      DVD Writer 1170d   Adapter: 1  ID: 1
Read mode               : Secure
Utilize accurate stream : Yes
Defeat audio cache      : Yes
Make use of C2 pointers : No
Read offset correction                      : 6
Overread into Lead-In and Lead-Out          : No
Fill up missing offset samples with silence : Yes
Delete leading and trailing silent blocks   : No
Null samples used in CRC calculations       : Yes
Used interface                              : Native Win32 interface for Win NT & 2000
Used output format              : User Defined Encoder
Selected bitrate                : 1024 kBit/s
Quality                         : High
Add ID3 tag                     : No
Command line compressor         : C:\Program Files (x86)\Exact Audio Copy\Flac\flac.exe
Additional command line options : -V -8 -T "Date=%year%" -T "Genre=%genre%" %source%
TOC of the extracted CD
     Track |   Start  |  Length  | Start sector | End sector
    ---------------------------------------------------------
        1  |  0:00.00 |  1:00.01 |         0    |     4500
        2  |  1:00.01 |  4:45.11 |      4501    |    25886
        3  |  5:45.12 |  5:29.61 |     25887    |    50622
        4  | 11:14.73 |  4:24.20 |     50623    |    70442
        5  | 15:39.18 |  6:13.45 |     70443    |    98462
        6  | 21:52.63 |  4:45.20 |     98463    |   119857
        7  | 26:38.08 |  8:16.43 |    119858    |   157100
        8  | 34:54.51 |  5:01.24 |    157101    |   179699
        9  | 39:56.00 |  7:15.25 |    179700    |   212349
       10  | 47:11.25 |  4:31.54 |    212350    |   232728
       11  | 51:43.04 |  5:48.71 |    232729    |   258899
Range status and errors
Selected range
     Filename C:\EAC\ungern666\Mob Rules - Beast Reborn.wav
     Peak level 97.7 %
     Extraction speed 7.3 X
     Range quality 100.0 %
     Test CRC 663DA9F7
     Copy CRC 663DA9F7
     Copy OK
No errors occurred
AccurateRip summary
Track  1  not present in database
Track  2  not present in database
Track  3  not present in database
Track  4  not present in database
Track  5  not present in database
Track  6  not present in database
Track  7  not present in database
Track  8  not present in database
Track  9  not present in database
Track 10  not present in database
Track 11  not present in database
None of the tracks are present in the AccurateRip database
End of status report

CD 2

Код:
Exact Audio Copy V1.3 from 2. September 2016
EAC extraction logfile from 23. August 2018, 12:30
Mob Rules / Sacred Heart
Used drive  : TSSTcorpBDDVDW SE-506CB   Adapter: 1  ID: 1
Read mode               : Secure
Utilize accurate stream : Yes
Defeat audio cache      : Yes
Make use of C2 pointers : No
Read offset correction                      : 6
Overread into Lead-In and Lead-Out          : No
Fill up missing offset samples with silence : Yes
Delete leading and trailing silent blocks   : No
Null samples used in CRC calculations       : Yes
Used interface                              : Native Win32 interface for Win NT & 2000
Used output format              : User Defined Encoder
Selected bitrate                : 1024 kBit/s
Quality                         : High
Add ID3 tag                     : No
Command line compressor         : C:\Program Files (x86)\Exact Audio Copy\Flac\flac.exe
Additional command line options : -V -8 -T "Date=%year%" -T "Genre=%genre%" %source%
TOC of the extracted CD
     Track |   Start  |  Length  | Start sector | End sector
    ---------------------------------------------------------
        1  |  0:00.00 |  5:59.59 |         0    |    26983
        2  |  5:59.59 |  5:22.16 |     26984    |    51149
Range status and errors
Selected range
     Filename C:\EAC\ungern666\Mob Rules - Sacred Heart.wav
     Peak level 97.7 %
     Extraction speed 1.3 X
     Range quality 99.9 %
     Test CRC EBC36BA6
     Copy CRC EBC36BA6
     Copy OK
No errors occurred
AccurateRip summary
Track  1  not present in database
Track  2  not present in database
None of the tracks are present in the AccurateRip database
End of status report

Индексная карта (non-compilant .cue)

CD 1

Код:
REM DATE 2018
REM DISCID 890D7C0B
REM COMMENT "ExactAudioCopy v1.3"
PERFORMER "Mob Rules"
TITLE "Beast Reborn"
FILE "Mob Rules - Beast Reborn.flac" WAVE
  TRACK 01 AUDIO
    TITLE "Beast Reborn"
    PERFORMER "Mob Rules"
    INDEX 01 00:00:00
  TRACK 02 AUDIO
    TITLE "Ghost Of A Chance"
    PERFORMER "Mob Rules"
    INDEX 01 01:00:01
  TRACK 03 AUDIO
    TITLE "Shores Ahead"
    PERFORMER "Mob Rules"
    INDEX 01 05:45:12
  TRACK 04 AUDIO
    TITLE "Sinister Light"
    PERFORMER "Mob Rules"
    INDEX 01 11:14:73
  TRACK 05 AUDIO
    TITLE "Traveller In Time"
    PERFORMER "Mob Rules"
    INDEX 01 15:39:18
  TRACK 06 AUDIO
    TITLE "Children's Crusade"
    PERFORMER "Mob Rules"
    INDEX 01 21:52:63
  TRACK 07 AUDIO
    TITLE "War Of Currents"
    PERFORMER "Mob Rules"
    INDEX 01 26:38:08
  TRACK 08 AUDIO
    TITLE "The Explorer"
    PERFORMER "Mob Rules"
    INDEX 01 34:54:51
  TRACK 09 AUDIO
    TITLE "Revenant Of The Sea"
    PERFORMER "Mob Rules"
    INDEX 01 39:56:00
  TRACK 10 AUDIO
    TITLE "Way Back Home"
    PERFORMER "Mob Rules"
    INDEX 01 47:11:25
  TRACK 11 AUDIO
    TITLE "My Sobriety Mind (For Those Who Left)"
    PERFORMER "Mob Rules"
    INDEX 01 51:43:04

CD 2

Код:
REM DATE 2018
REM DISCID 0C02AA02
REM COMMENT "ExactAudioCopy v1.3"
PERFORMER "Mob Rules"
TITLE "Sacred Heart"
FILE "Mob Rules - Sacred Heart.flac" WAVE
  TRACK 01 AUDIO
    TITLE "Sacred Heart"
    PERFORMER "Mob Rules"
    INDEX 01 00:00:00
  TRACK 02 AUDIO
    TITLE "Lord Of Madness (Re-Recorded)"
    PERFORMER "Mob Rules"
    INDEX 01 05:59:59
-

для ознакомления:

--

sergej644

Пост 12-Авг-2018 19:56

[Цитировать]

-Bullet - Dust To Gold (Japanese Edition)--
Год издания: 2018
Страна: Sweden
Жанр: Heavy Metal
Продолжительность: 00:45:31-Лейбл издания: Spiritual Beast
Страна-выпуска диска: Japan
Номер по каталогу: IUCP-16285-Формат: FLAC
Битрейт аудио: Lossless
Тип рипа: image +.cue
Наличие сканов в содержимом раздачи: да
-

Трэклист


01. Speed And Attack (2:36)
02. Ain't Enough (2:39)
03. Rogue Soldier (3:02)
04. Fuel The Fire (3:27)
05. One More Round (3:08)
06. Highway Love (3:24)
07. Wildfire (4:02)
08. Screams In The Night (2:52)
09. Forever Rise (4:04)
10. The Prophecy (0:29)
11. Hollow Grounds (3:51)
12. Dust To Gold (5:33)
13. Dr. Phibes (3:08)
14. Swords And Tequila (3:15)
-

Лог создания рипа

Код:
Exact Audio Copy V1.0 beta 6 from 9. April 2015
EAC extraction logfile from 23. May 2018, 10:31
Bullet / Dust To Gold
Used drive  : Optiarc DVD RW AD-7243S   Adapter: 2  ID: 0
Read mode               : Secure
Utilize accurate stream : Yes
Defeat audio cache      : Yes
Make use of C2 pointers : No
Read offset correction                      : 48
Overread into Lead-In and Lead-Out          : No
Fill up missing offset samples with silence : Yes
Delete leading and trailing silent blocks   : No
Null samples used in CRC calculations       : Yes
Used interface                              : Installed external ASPI interface
Used output format              : User Defined Encoder
Selected bitrate                : 768 kBit/s
Quality                         : High
Add ID3 tag                     : No
Command line compressor         : D:\Flac\flac-1.3.1-win\win64\flac.exe
Additional command line options :  -V -8 -T "Date=%year%" -T "Genre=%genre%" %source%
TOC of the extracted CD
     Track |   Start  |  Length  | Start sector | End sector
    ---------------------------------------------------------
        1  |  0:00.00 |  2:36.16 |         0    |    11715
        2  |  2:36.16 |  2:39.25 |     11716    |    23665
        3  |  5:15.41 |  3:02.34 |     23666    |    37349
        4  |  8:18.00 |  3:27.20 |     37350    |    52894
        5  | 11:45.20 |  3:07.58 |     52895    |    66977
        6  | 14:53.03 |  3:23.74 |     66978    |    82276
        7  | 18:17.02 |  4:01.67 |     82277    |   100418
        8  | 22:18.69 |  2:51.39 |    100419    |   113282
        9  | 25:10.33 |  4:04.33 |    113283    |   131615
       10  | 29:14.66 |  0:28.39 |    131616    |   133754
       11  | 29:43.30 |  3:50.59 |    133755    |   151063
       12  | 33:34.14 |  5:32.69 |    151064    |   176032
       13  | 39:07.08 |  3:08.01 |    176033    |   190133
       14  | 42:15.09 |  3:15.37 |    190134    |   204795
Range status and errors
Selected range
     Filename D:\Varvaar r\Bullet[2018]Dust To Gold (Japan-IUCP-16285)\Bullet - Dust To Gold.wav
     Peak level 100.0 %
     Extraction speed 3.9 X
     Range quality 100.0 %
     Test CRC 45E899BC
     Copy CRC 45E899BC
     Copy OK
No errors occurred
AccurateRip summary
Track  1  not present in database
Track  2  not present in database
Track  3  not present in database
Track  4  not present in database
Track  5  not present in database
Track  6  not present in database
Track  7  not present in database
Track  8  not present in database
Track  9  not present in database
Track 10  not present in database
Track 11  not present in database
Track 12  not present in database
Track 13  not present in database
Track 14  not present in database
None of the tracks are present in the AccurateRip database
End of status report

Индексная карта (non-compilant .cue)

Код:
REM GENRE "Heavy Metal"
REM DATE 2018
REM DISCID BC0AAA0E
REM COMMENT "ExactAudioCopy v1.0b6"
PERFORMER "Bullet"
TITLE "Dust To Gold "
FILE "Bullet - Dust To Gold.Flac" WAVE
  TRACK 01 AUDIO
    TITLE "Speed And Attack"
    PERFORMER "Bullet"
    INDEX 01 00:00:00
  TRACK 02 AUDIO
    TITLE "Ain't Enough"
    PERFORMER "Bullet"
    INDEX 00 02:35:13
    INDEX 01 02:36:16
  TRACK 03 AUDIO
    TITLE "Rogue Soldier"
    PERFORMER "Bullet"
    INDEX 00 05:14:43
    INDEX 01 05:15:41
  TRACK 04 AUDIO
    TITLE "Fuel The Fire"
    PERFORMER "Bullet"
    INDEX 00 08:17:18
    INDEX 01 08:18:00
  TRACK 05 AUDIO
    TITLE "One More Round"
    PERFORMER "Bullet"
    INDEX 00 11:44:02
    INDEX 01 11:45:20
  TRACK 06 AUDIO
    TITLE "Highway Love"
    PERFORMER "Bullet"
    INDEX 00 14:52:36
    INDEX 01 14:53:03
  TRACK 07 AUDIO
    TITLE "Wildfire"
    PERFORMER "Bullet"
    INDEX 00 18:15:63
    INDEX 01 18:17:02
  TRACK 08 AUDIO
    TITLE "Screams In The Night"
    PERFORMER "Bullet"
    INDEX 00 22:17:50
    INDEX 01 22:18:69
  TRACK 09 AUDIO
    TITLE "Forever Rise"
    PERFORMER "Bullet"
    INDEX 00 25:09:08
    INDEX 01 25:10:33
  TRACK 10 AUDIO
    TITLE "The Prophecy"
    PERFORMER "Bullet"
    INDEX 00 29:14:48
    INDEX 01 29:14:66
  TRACK 11 AUDIO
    TITLE "Hollow Grounds"
    PERFORMER "Bullet"
    INDEX 01 29:43:30
  TRACK 12 AUDIO
    TITLE "Dust To Gold"
    PERFORMER "Bullet"
    INDEX 00 33:32:53
    INDEX 01 33:34:14
  TRACK 13 AUDIO
    TITLE "Dr. Phibes"
    PERFORMER "Bullet"
    INDEX 00 39:06:08
    INDEX 01 39:07:08
  TRACK 14 AUDIO
    TITLE "Swords And Tequila"
    PERFORMER "Bullet"
    INDEX 00 42:12:10
    INDEX 01 42:15:09
-

для ознакомления:

--

sergej644

Пост 12-Авг-2018 19:53

[Цитировать]

-Universe Infinity - Rock Is Alive (Japanese Edition)--
Год издания: 2018
Страна: Sweden
Жанр: Heavy Metal
Продолжительность: 00:54:33-Лейбл издания: AVALON
Страна-выпуска диска: Japan
Номер по каталогу: MICP-11415-Формат: FLAC
Битрейт аудио: Lossless
Тип рипа: image +.cue
Наличие сканов в содержимом раздачи: да
-

Трэклист


01. Start Give All Your Love (4:35)
02. Catch Of My Life (4:50)
03. Company's Coming (5:21)
04. She Can't Get Enough (4:33)
05. Red Submarines (4:01)
06. Born In Flames (4:19)
07. Rock Is Alive (3:17)
08. We Were Just Dancing (5:34)
09. Lady Luck (5:16)
10. Streets Of Hate (6:17)
11. The Rival (Bonus Track) (6:29)
-

Лог создания рипа

Код:
Exact Audio Copy V1.3 from 2. September 2016
EAC extraction logfile from 14. May 2018, 13:29
Universe Infinity / Rock Is Alive (Japan)
Used drive  : ATAPI   iHAS122   W   Adapter: 2  ID: 0
Read mode               : Secure
Utilize accurate stream : Yes
Defeat audio cache      : Yes
Make use of C2 pointers : No
Read offset correction                      : 48
Overread into Lead-In and Lead-Out          : No
Fill up missing offset samples with silence : Yes
Delete leading and trailing silent blocks   : No
Null samples used in CRC calculations       : Yes
Used interface                              : Installed external ASPI interface
Used output format              : User Defined Encoder
Selected bitrate                : 1024 kBit/s
Quality                         : High
Add ID3 tag                     : No
Command line compressor         : C:\Program Files\FLAC\flac.exe
Additional command line options : -V -8 -T "Date=%year%" -T "Genre=%genre%" %source%
TOC of the extracted CD
     Track |   Start  |  Length  | Start sector | End sector
    ---------------------------------------------------------
        1  |  0:00.00 |  4:35.36 |         0    |    20660
        2  |  4:35.36 |  4:50.13 |     20661    |    42423
        3  |  9:25.49 |  5:20.61 |     42424    |    66484
        4  | 14:46.35 |  4:33.20 |     66485    |    86979
        5  | 19:19.55 |  4:01.32 |     86980    |   105086
        6  | 23:21.12 |  4:18.42 |    105087    |   124478
        7  | 27:39.54 |  3:16.64 |    124479    |   139242
        8  | 30:56.43 |  5:34.11 |    139243    |   164303
        9  | 36:30.54 |  5:16.22 |    164304    |   188025
       10  | 41:47.01 |  6:17.11 |    188026    |   216311
       11  | 48:04.12 |  6:28.68 |    216312    |   245479
Range status and errors
Selected range
     Filename D:\Universe Infinity - Rock Is Alive (Japan).wav
     Peak level 97.7 %
     Extraction speed 3.9 X
     Range quality 100.0 %
     Test CRC B5DDC459
     Copy CRC B5DDC459
     Copy OK
No errors occurred
AccurateRip summary
Track  1  not present in database
Track  2  not present in database
Track  3  not present in database
Track  4  not present in database
Track  5  not present in database
Track  6  not present in database
Track  7  not present in database
Track  8  not present in database
Track  9  not present in database
Track 10  not present in database
Track 11  not present in database
None of the tracks are present in the AccurateRip database
End of status report

Индексная карта (non-compilant .cue)

Код:
REM GENRE "Heavy Metal"
REM DATE 2018
REM DISCID A70CC90B
REM COMMENT "ExactAudioCopy v1.3"
PERFORMER "Universe Infinity"
TITLE "Rock Is Alive (Japan)"
FILE "Universe Infinity - Rock Is Alive (Japan).flac" WAVE
  TRACK 01 AUDIO
    TITLE "Start Give All Your Love"
    PERFORMER "Universe Infinity"
    INDEX 01 00:00:00
  TRACK 02 AUDIO
    TITLE "Catch Of My Life"
    PERFORMER "Universe Infinity"
    INDEX 00 04:33:36
    INDEX 01 04:35:36
  TRACK 03 AUDIO
    TITLE "Company's Coming"
    PERFORMER "Universe Infinity"
    INDEX 00 09:23:49
    INDEX 01 09:25:49
  TRACK 04 AUDIO
    TITLE "She Can't Get Enough"
    PERFORMER "Universe Infinity"
    INDEX 00 14:44:35
    INDEX 01 14:46:35
  TRACK 05 AUDIO
    TITLE "Red Submarines"
    PERFORMER "Universe Infinity"
    INDEX 00 19:17:55
    INDEX 01 19:19:55
  TRACK 06 AUDIO
    TITLE "Born In Flames"
    PERFORMER "Universe Infinity"
    INDEX 00 23:19:12
    INDEX 01 23:21:12
  TRACK 07 AUDIO
    TITLE "Rock Is Alive"
    PERFORMER "Universe Infinity"
    INDEX 00 27:37:54
    INDEX 01 27:39:54
  TRACK 08 AUDIO
    TITLE "We Were Just Dancing"
    PERFORMER "Universe Infinity"
    INDEX 00 30:54:43
    INDEX 01 30:56:43
  TRACK 09 AUDIO
    TITLE "Lady Luck"
    PERFORMER "Universe Infinity"
    INDEX 00 36:28:54
    INDEX 01 36:30:54
  TRACK 10 AUDIO
    TITLE "Streets Of Hate"
    PERFORMER "Universe Infinity"
    INDEX 00 41:45:01
    INDEX 01 41:47:01
  TRACK 11 AUDIO
    TITLE "The Rival (Bonus Track)"
    PERFORMER "Universe Infinity"
    INDEX 00 48:02:12
    INDEX 01 48:04:12
-

для ознакомления:

--
 

Текущее время: Сегодня 12:23

Часовой пояс: GMT + 3